<?xml version="1.0" standalone="no"?>
<!DOCTYPE svg PUBLIC "-//W3C//DTD SVG 1.1//EN" "http://www.w3.org/Graphics/SVG/1.1/DTD/svg11.dtd" >
<svg xmlns="http://www.w3.org/2000/svg">
<metadata></metadata>
<defs>
<font id="atlas_slabmedium" horiz-adv-x="20" >
<font-face units-per-em="2048" ascent="1638" descent="-410" />
<missing-glyph horiz-adv-x="860" />
<glyph horiz-adv-x="0" />
<glyph horiz-adv-x="682" />
<glyph unicode=" "  horiz-adv-x="860" />
<glyph unicode="&#x09;" horiz-adv-x="860" />
<glyph unicode="&#xa0;" horiz-adv-x="860" />
<glyph unicode="!" horiz-adv-x="395" d="M20 168q-1 30 34.5 89t61.5 73q35 18 89 10q77 -11 118.5 -78t2.5 -119q-66 -89 -162 -89q-42 0 -59.5 8t-43.5 38q-41 48 -41 68zM99.5 1032q2.5 185 17.5 195q24 15 120 13t118 -18q11 -8 15 -14.5t4 -20t-4 -30t-10 -51.5t-12 -77.5t-11 -115.5t-7 -159 q-5 -231 -20 -246q-14 -14 -23 9q-12 32 -25 17q-8 -9 -11 -34q-3 -26 -12.5 -31t-53.5 -1q-64 6 -72 14q-4 4 -10 184.5t-3.5 365.5z" />
<glyph unicode="#" horiz-adv-x="823" d="M23 830l7 59l165 14l4 55q4 54 19 73q15 18 60 16t62 -22q18 -22 25 -71q6 -35 15 -43t42 -8q35 0 42.5 9.5t12.5 59.5l7 68h123l16 -61q11 -45 21 -54.5t54 -14.5q45 -5 53.5 -13t11.5 -46t-5 -48.5t-54 -31.5q-62 -27 -71 -62q-10 -43 4 -58.5t64 -15.5q61 0 85 -27 q17 -19 17.5 -30.5t-14.5 -42.5q-14 -29 -30.5 -39t-64.5 -19l-73 -14v-151l-51 -4q-62 -5 -84 14.5t-26 82.5q-3 50 -8.5 61t-29.5 11t-30.5 -12.5t-10.5 -70.5l-7 -82l-57 -4q-35 -2 -49.5 3.5t-28.5 25.5q-23 34 -26 79l-4 47l-179 14l3 55q6 101 118 103q39 0 45 6.5 t3 45.5l-4 51l-77 8q-79 9 -90 17q-12 9 -5 67zM355 667q5 -26 52 -30q42 -4 57.5 10t7.5 48q-5 22 -16 29t-41 7q-38 0 -52 -15t-8 -49z" />
<glyph unicode="$" horiz-adv-x="841" d="M20 230l28 64q27 63 55.5 78.5t83.5 -3.5t72 1t17 100q0 66 -15.5 94t-46.5 20q-27 -7 -27 6q0 10 -62 78q-53 57 -60.5 102.5t23.5 124.5q15 39 35 59.5t74 51.5q87 50 100 63q10 10 21 95.5t17 91.5q11 11 51 0q29 -8 36.5 -21.5t11.5 -70.5q5 -60 12.5 -71.5 t42.5 -19.5q48 -11 59 0q5 5 11.5 41t13.5 74t24.5 66.5t42.5 23.5q13 -3 16 -26.5t1 -101.5l-4 -123l59 -30q63 -30 84 -38q30 -10 24 -54t-42 -80q-28 -28 -41 -32.5t-36 5.5q-41 18 -51 9t-21 -73q-12 -67 2 -102.5t59 -51.5q32 -12 59.5 -57.5t43.5 -111.5q8 -34 9 -51 t-5 -25t-14 -12.5t-20 -20t-21 -42.5q-6 -19 -24 -40.5t-38 -34.5q-73 -48 -86 -68.5t-20 -100.5l-9 -103h-96l-5 80q-3 57 -10.5 72t-41.5 31q-47 22 -61.5 5.5t-18.5 -93.5q-4 -82 -13 -84q-8 -3 -50 21q-28 16 -33 29t1 55q7 53 7.5 73t-4.5 27t-22 9q-12 2 -22.5 11 t-13.5 21q-5 20 -19 24t-30.5 -1.5t-40 -4t-43.5 17.5zM203 735q1 -17 19 -27l5 -2q14 -4 13 7q0 16 -18 27q-3 2 -6 3q-14 5 -13 -8zM363 356q2 -58 17 -82t49 -24q29 0 42.5 25.5t21.5 94.5q5 42 2 60.5t-18 31.5q-47 43 -81.5 11t-32.5 -117zM397 768q9 -45 41 -69 q40 -30 63 -13t33 86q6 44 3.5 63.5t-16.5 35.5q-23 25 -61 25q-23 0 -34.5 -7.5t-19.5 -29.5q-18 -46 -9 -91z" />
<glyph unicode="%" horiz-adv-x="1421" d="M29 936q13 47 42 106q40 81 63 109t72 54q41 22 142.5 16.5t159.5 -32.5q56 -26 75 -71t18 -148q-1 -75 -8.5 -104.5t-37.5 -77.5q-45 -71 -55 -71q-11 0 -15 -22q-4 -19 -57 -41t-113 -29q-109 -12 -237 111q-87 88 -37 91q8 0 14.5 4.5t6.5 9.5t-6.5 9.5t-14.5 4.5 q-34 0 -12 81zM238 96q-21 21 41.5 103.5t135.5 163t73 90.5q0 4 32 40t89.5 110t104.5 154q24 40 115 151.5t100 111.5q13 0 23 23q19 47 50 87.5t48 40.5q23 0 49 28q24 27 62 27t62 -27q18 -20 17 -28.5t-22 -31.5q-29 -31 -29 -49q0 -19 -74 -108t-181 -212.5 t-155 -189.5q-47 -64 -112.5 -143.5t-87.5 -114.5q-33 -54 -130 -154q-70 -72 -90.5 -85t-57.5 -7q-50 7 -63 20zM243.5 900q-9.5 -24 8 -39.5t63.5 -24.5q47 -9 61 -6t31 26q51 66 -6 120q-33 30 -48.5 27t-62.5 -45q-37 -34 -46.5 -58zM840 250q-4 27 21 140q7 33 27.5 65 t44 54.5t47.5 40.5t40 26.5t20 9.5l59 13q27 6 110.5 -1.5t102.5 -17.5q22 -12 55 -47q23 -25 28 -52t6 -128l1 -144l-184 -183l-80 17q-122 26 -159 44.5t-85 76.5q-50 59 -54 86zM1054 281q3 -26 14.5 -32.5t60.5 -9.5q45 -3 62 2.5t31 25.5q13 19 18 34t1 23.5t-17 8.5 q-20 0 -36 20q-14 17 -33 19.5t-29 -13.5q-8 -14 -29 -20.5t-33.5 -18t-9.5 -39.5z" />
<glyph unicode="&#x26;" />
<glyph unicode="'" horiz-adv-x="239" d="M21 1148.5q-1 36.5 19 62.5q16 16 70 12q108 -9 109 -144q1 -130 -110 -192q-56 -31 -67 -16q-8 10 20 38q43 43 59 89q17 49 -26 49q-29 0 -51 32.5t-23 69z" />
<glyph unicode="(" horiz-adv-x="499" d="M20 408v200q0 146 5.5 183t37.5 98l83 165q27 57 49 78.5t87 55.5q98 51 112 51q16 0 51 -46q30 -40 27.5 -72.5t-39.5 -73.5q-47 -53 -107.5 -155t-73.5 -153q-12 -49 -10.5 -78t21.5 -115q25 -105 49 -154t78 -100q63 -60 46 -67q-5 -1 -17 3q-22 8 -20 -6 q3 -23 41 -52q52 -39 36 -53q-4 -4 -16 -4q-8 0 -14 -6t-6 -14t-12.5 -20.5t-29.5 -21.5q-20 -10 -29.5 -14.5t-16 -4.5t-8 4.5t-1.5 14.5q0 14 -52.5 44.5t-76.5 30.5q-16 0 -55 51.5t-85 134.5zM151 238q0 -10 24.5 -33.5t34.5 -23.5q9 0 -5 25l-2 3q-18 30 -41 36 q-11 3 -11 -7z" />
<glyph unicode=")" horiz-adv-x="516" d="M20 132l44 37q45 38 43 57q-1 10 -21 2q-22 -8 -19 4q2 17 40 53q55 52 84.5 109t51.5 153q19 85 20.5 116.5t-11.5 81.5q-13 51 -71 148t-108 154q-37 41 -39.5 73.5t27.5 72.5q36 47 47 47q18 0 97 -43t95 -62q20 -23 43 -67l152 -287l-6 -180q-5 -155 -27 -223.5 t-93 -145.5q-56 -60 -56 -83q0 -9 -6 -16t-14 -7q-28 0 -79.5 -29.5t-51.5 -45.5q0 -21 -8 -21q-14 0 -46 21.5t-55 46.5zM297 188q3 0 8 2q18 7 28 30q10 26 2 25t-26 -28q-20 -29 -12 -29z" />
<glyph unicode="*" horiz-adv-x="512" d="M23.5 840q9.5 24 61.5 62q29 21 47.5 40t14.5 24q-5 8 -61 39.5t-56 41.5q0 23 30.5 24t69.5 -21q48 -26 63.5 -18t23.5 65q11 73 20 82t42 -9q26 -14 26 -59t10.5 -52t53.5 13q48 23 71 8q31 -19 21.5 -45.5t-56.5 -52.5q-59 -32 -59 -45q0 -7 21 -19t53 -31t50 -39 q38 -41 12 -57q-25 -15 -76 11q-20 10 -38 26q-46 41 -61 41q-9 0 -15.5 -33.5t-10.5 -72t-20.5 -65.5t-44.5 -17q-21 8 -21 83q0 76 -12 83q-10 6 -64.5 -28.5t-74.5 -21.5q-30 19 -20.5 43z" />
<glyph unicode="+" horiz-adv-x="651" d="M22 537q5 56 22 67q14 10 105 17l89 7l4 76q2 32 8 56t14 35.5t17.5 19.5t17 7t12.5 -1q19 -7 44 -7q24 0 46.5 -43.5t22.5 -90.5q0 -39 26 -55.5t86 -16.5q33 0 63.5 -21t30.5 -43q0 -10 -20.5 -33t-17.5 -40q2 -13 -14 -18t-72 -10l-89 -7l-2 -193h-71q-68 -1 -89 21 t-26 96l-5 76l-68 8q-69 9 -104 23q-23 10 -28.5 21.5t-1.5 48.5z" />
<glyph unicode="," horiz-adv-x="235" d="M20.5 178q1.5 34 27.5 55q25 20 68.5 17t65.5 -27q23 -26 30 -96t-10 -111q-12 -29 -73 -83t-81 -54q-25 0 7 49q5 8 18 26q53 78 51 104q-1 21 -28 25q-34 5 -55.5 33t-20 62z" />
<glyph unicode="-" horiz-adv-x="417" d="M20 508q2 31 23 43t129.5 13.5t170.5 -9.5l55 -9v-138l-173 -1q-129 -1 -153 3.5t-36 29.5q-18 37 -16 68z" />
<glyph unicode="." horiz-adv-x="233" d="M33.5 94q-29.5 43 1.5 101q12 22 42 26.5t60 -6t53.5 -33.5t23.5 -49q0 -30 -21 -47t-67 -24q-63 -11 -92.5 32z" />
<glyph unicode="/" horiz-adv-x="743" d="M28 138q13 36 84 160q41 72 65 121t28 65.5t8.5 29t15.5 25.5q13 16 68.5 132.5t79.5 149.5q39 55 65.5 109t26.5 79q0 27 41 94.5t41 77.5q0 14 29 36q22 15 71.5 13t68.5 -18q8 -7 -9.5 -69t-12.5 -76q7 -19 -15 -28q-13 -5 -52.5 -75.5t-96.5 -180.5t-82 -155 q-52 -91 -148.5 -283t-96.5 -205q0 -24 -20 -53t-36 -29q-18 0 -33.5 -14t-41.5 -14q-33 0 -47 36t-1 72z" />
<glyph unicode="0" horiz-adv-x="1056" d="M23 737q5 114 12.5 153.5t35.5 95.5q41 81 134.5 154t192.5 101q41 11 148 5t136 -21q22 -11 121 -75q62 -40 82.5 -63.5t44.5 -83.5q29 -71 57 -165t37 -110q16 -25 13.5 -75t-11.5 -92.5t-19.5 -86t-10.5 -56.5q0 -35 -39 -99t-88.5 -114.5t-76.5 -50.5q-19 0 -46 -22 t-64 -34q-28 -9 -48.5 -19.5t-40.5 -16t-72 -11.5q-39 -5 -55 -5.5t-27.5 4.5t-18 12t-32 21.5t-63.5 30.5q-79 32 -184 137l-105 105l-10 107q-10 103 -3 274zM336 653q-1 -98 46 -210.5t96 -129.5q26 -9 44 0.5t70 61.5q78 77 98 123.5t12 133.5q-19 185 -86 225 q-36 22 -80.5 23.5t-61.5 -18.5t-45 -24q-30 -5 -61.5 -67.5t-31.5 -117.5z" />
<glyph unicode="1" horiz-adv-x="634" d="M21 840.5q1 11.5 20 51.5q28 60 28 74q0 10 18.5 49t44 94.5t38.5 95.5q6 20 34 24t151 3q186 -1 207 -7q16 -9 16 -26q0 -26 11 -33q7 -4 6.5 -223.5t-7.5 -266.5q-2 -14 7 -182.5t18 -280.5q4 -49 0.5 -61t-22.5 -12q-15 0 -21 -7.5t-6 -26.5q0 -35 -31 -55.5 t-70.5 -23.5t-77 2.5t-51.5 18.5q-13 12 -19.5 98t-20.5 431q-7 186 -21 219q-12 27 -44 13q-10 -4 -27 -14q-22 -13 -34.5 -14.5t-17.5 3t-19 10.5t-35 6q-34 0 -59 17q-17 12 -16 23.5z" />
<glyph unicode="2" horiz-adv-x="1019" d="M24 33l8 39q8 42 -6 90q-15 51 3 76q10 13 25 4q11 -8 32.5 7t21.5 31q0 10 -9 4.5t-20 -12t-20 6.5q-11 18 70 89t188 137q36 22 124 100.5t125 120.5q30 34 42.5 61t17.5 68q15 124 -84 124q-31 0 -121.5 -39.5t-124.5 -67.5q-16 -15 -35 -9.5t-104 51.5q-58 31 -93 88 q-29 47 -6 57q5 2 11 2t57 33.5t122 75.5t119 58t198 5.5t202 -32.5q68 -29 138 -118.5t69 -147.5q0 -30 -28 -135q-22 -84 -61 -134t-145 -131q-87 -66 -154.5 -136t-60.5 -87q13 -34 348 -22l127 4l-8 -67q-4 -35 -7 -96q-4 -81 -15 -92q-12 -11 -38 12q-17 16 -25 17.5 t-15 -9.5t-98 -15.5t-342 -6.5z" />
<glyph unicode="3" horiz-adv-x="983" d="M23.5 227.5q-7.5 13.5 0.5 39.5q7 41 43 81t65 40q19 0 31 6.5t16.5 12t19 4.5t41.5 -14q50 -23 57 -23q10 0 96 -41q63 -30 81.5 -33t54.5 12q147 62 85 184q-23 46 -77.5 66.5t-131.5 13.5q-63 -6 -79 -1t-42 39q-32 42 -33 65t29 47q38 30 118.5 124.5t75.5 102.5 q-4 6 -82.5 8.5t-165 6.5t-104.5 13q-9 4 -28 13t-23 11q-17 8 -22 61t6 106l10 47l123 7q206 8 313.5 2t196 -17.5t98.5 -11.5q52 0 74.5 -26t31.5 -94q8 -65 -17 -108t-130 -141q-39 -36 -66.5 -67.5t-27.5 -38.5q0 -12 32 -29t90.5 -52t105.5 -80q50 -49 62 -70t12 -61 q0 -156 -86 -246q-23 -25 -46.5 -42.5t-33.5 -17.5q-23 0 -41 -22q-38 -47 -121 -69t-129 2q-42 21 -110 21q-82 0 -174 33.5t-118 72.5q-15 23 -34 35t-29 13.5t-17.5 15zM613 140q-7 -14 6 -14q15 0 15 14t-7 14t-14 -14z" />
<glyph unicode="4" horiz-adv-x="1177" d="M22 487q4 18 34 60q42 58 42 77q0 7 7 17t26 31.5t43.5 47.5t68.5 76t92 107q142 170 215 250l77 84l137 -5q165 -6 188 -12q30 -7 37 -30q2 -7 9 -53q13 -85 13 -344l1 -261l51 -4q52 -5 73 -35q16 -24 20 -74.5t-10 -63.5q-11 -11 -11 -41q0 -19 -12 -25.5t-56 -10.5 l-69 -7l-14 -96q-15 -101 -23 -112q-6 -10 -69.5 -20t-126 -2.5t-62.5 43.5q0 10 -7 20.5t-16 13.5q-18 7 -18 35t4.5 53.5t-12.5 43.5q-19 15 -260 17q-180 1 -218 6t-78 34q-32 24 -45 45t-23 65q-12 52 -8 70zM459 562q4 -11 88 -11.5t103 10.5q11 7 11 115 q0 109 -13 116q-5 3 -20 -9.5t-31 -32.5l-91 -111q-22 -25 -35.5 -48t-11.5 -29z" />
<glyph unicode="5" horiz-adv-x="917" d="M21.5 279.5q4.5 27.5 42.5 79.5q29 41 44.5 57.5t33.5 19.5t32.5 -8.5t43.5 -42.5q13 -14 18 -19.5t16 -14.5t13.5 -12t14.5 -8.5t15.5 -6.5t19.5 -4t23 -3t29 -1t36 -0.5t45 0.5q75 0 104.5 22t29.5 80q0 55 -33.5 86t-113.5 48q-51 11 -95.5 9.5t-64.5 -8.5t-42 -9 t-27 8q-14 14 -54 14q-29 0 -34 9.5t-2 62.5q3 59 -12 101.5t-9 117.5q8 101 10 214q2 63 6.5 78.5t27.5 19.5q25 4 40.5 26.5t36.5 31.5q24 10 286.5 3.5t317.5 -17.5l43 -9l-4 -103q-5 -114 -27 -120q-7 -2 -18 5q-17 11 -238.5 7.5t-232.5 -14.5q-12 -12 -14 -99l-2 -87 l49 3q83 5 135.5 0.5t134.5 -24.5q102 -25 147.5 -45.5t55.5 -46.5q19 -48 34 -146.5t15 -170.5v-106l-68 -58q-68 -59 -81 -59q-12 0 -97 -56q-73 -49 -133 -56t-185 19q-109 22 -193.5 67t-103.5 89q-20 49 -15.5 76.5zM747 1089q0 -5 6 -9.5t14 -4.5t14.5 4.5t6.5 9.5 q0 13 -21 13q-20 0 -20 -13z" />
<glyph unicode="6" horiz-adv-x="960" d="M27 708.5q15 131.5 50 208.5q31 68 104.5 145t151.5 122q44 26 75.5 34t54.5 6t86 -7t136 -4q34 1 58.5 -10.5t68.5 -47.5q71 -60 71 -82q0 -29 -39 -82.5t-60 -53.5q-14 0 -47.5 11t-66.5 21.5t-89 8.5t-117 -24l-69 -25l-9 -82q-9 -82 -3 -88q5 -5 108 19 q123 29 215 -0.5t166 -121.5q46 -58 61.5 -134t2.5 -145.5t-38.5 -130t-59 -97t-61.5 -36.5q-11 0 -48 -30t-71 -33q-69 -6 -124 -11q-100 -9 -207.5 34.5t-156.5 112.5q-78 110 -104.5 164t-37.5 127q-16 100 -1 231.5zM331 391.5q10 -42.5 34 -68.5q18 -20 39.5 -24.5 t88.5 -2.5q63 2 88.5 9t47.5 27q41 39 33.5 92.5t-59.5 80.5q-57 29 -156 13.5t-115 -56.5q-11 -28 -1 -70.5zM370 144q-14 -15 9 -27q22 -12 34 -1q3 3 3 9q0 11 -19 19t-27 0z" />
<glyph unicode="7" horiz-adv-x="1001" d="M24 1105.5q13 61.5 66 92.5q34 19 100 23t357 2q331 -2 386 -11q48 -8 48 -30q0 -10 -11 -38q-11 -26 -12 -43t2 -28t2.5 -27.5t-14 -52.5t-43.5 -93l-83 -158q-13 -24 -32.5 -44.5t-42.5 -74.5q-29 -69 -99.5 -175.5t-97.5 -180.5q-26 -71 -96 -146q-46 -49 -70.5 -63 t-74.5 -22q-122 -18 -147 8q-11 12 7 30q17 17 17 68q0 26 6.5 43.5t14 24t14 14t6.5 14.5q0 9 34.5 89.5t34.5 85.5q0 7 41 50.5t41 60.5q0 8 2.5 14t7.5 12.5t17.5 23.5t28.5 41.5t44 73t61 110.5t65 96q36 38 27 83q-7 34 -33 36q-13 0 -26 -7q-22 -12 -205.5 -13 t-224.5 -8t-57 -3.5t-35 22.5q-39 39 -26 100.5z" />
<glyph unicode="8" horiz-adv-x="987" d="M23 421q6 93 13.5 115t47.5 58q54 48 80 64q18 12 11.5 23.5t-57.5 59.5q-62 58 -71.5 102t27.5 112q27 49 27 68q0 8 35.5 48t91 85t98.5 55q58 14 224 9q135 -4 182 -21t115 -87q35 -37 50 -37q12 0 39 -45q16 -28 19.5 -51t-1.5 -69q-16 -138 -62 -138q-21 0 -21 -34 q0 -14 -4.5 -24t-10.5 -10q-9 0 -8.5 -17t3.5 -34t-7 -25q-16 -10 -10.5 -23t42.5 -52q60 -64 75.5 -99t15.5 -105t-16.5 -116.5t-36 -63t-46.5 -34.5t-37 -29q-62 -74 -288 -77q-99 -1 -169 9.5t-97 24t-51.5 25t-44.5 11.5q-28 0 -82.5 53.5t-67.5 94.5q-16 46 -8 174z M334 399q-31 -57 89 -115q67 -31 91 -31.5t52 29.5q17 19 23.5 41.5t6.5 67.5q0 51 -6 69t-29 36q-30 23 -51.5 25t-89.5 -11q-49 -10 -67 -20t-15 -21.5t4.5 -28.5t-8.5 -41zM361 909q-4 -42 30 -51q11 -3 25 -15.5t22 -28.5q28 -53 88 -49t90 62q42 82 -20 125 q-37 26 -98.5 32t-96.5 -13q-36 -20 -40 -62z" />
<glyph unicode="9" horiz-adv-x="964" d="M20.5 828.5q-0.5 57.5 15 118.5t38.5 110.5t55 81.5t64 32q18 0 42 27.5t59 28.5q36 0 68 12q25 11 88 11t77 -11q13 -10 91 -26q67 -13 115 -55.5t123 -155.5q62 -93 78.5 -178t1.5 -236q-14 -138 -49 -219t-110 -151q-93 -86 -225 -136.5t-172 -14.5q-19 17 -104 28.5 t-103 27.5q-21 20 -54 36q-30 15 -34.5 48.5t19.5 60.5q14 16 25 35t15 27.5t16 13.5t32.5 0.5t59.5 -18.5q118 -42 241 4q46 17 55 30t15 69q7 76 -1 86q-3 5 -31.5 2t-61.5 -12q-77 -19 -108.5 -19t-98.5 19t-133.5 84t-92.5 134q-15 48 -15.5 105.5zM301.5 885.5 q-3.5 -39.5 19.5 -70t69.5 -46.5t99.5 -6q41 8 57 11t36.5 10t25 10t11 13.5t7 18.5t1.5 28q2 37 -4 56t-28 42q-24 26 -44.5 32t-80.5 6q-55 0 -79.5 -6.5t-49.5 -27.5q-37 -31 -40.5 -70.5zM534 1159q0 -11 19.5 -19.5t26.5 -0.5q14 15 -9 27q-22 13 -34 2q-3 -3 -3 -9z " />
<glyph unicode=":" horiz-adv-x="231" d="M24.5 126.5q-8.5 35.5 8.5 67.5q17 31 68.5 29t82.5 -35q32 -35 23 -66.5t-58 -54.5q-36 -18 -48.5 -17.5t-38.5 19.5q-29 22 -37.5 57.5zM29.5 508q-21.5 52 4.5 101q16 29 65.5 27.5t81.5 -31.5q24 -23 28.5 -50t-7.5 -48.5t-40 -36t-65 -14.5q-46 0 -67.5 52z" />
<glyph unicode=";" horiz-adv-x="223" d="M20.5 185.5q0.5 34.5 26.5 49.5q28 17 64.5 13.5t55.5 -25.5q24 -26 31.5 -96t-9.5 -111q-13 -32 -66 -84.5t-72 -52.5q-38 0 27 83q38 49 44 82t-23 39q-34 7 -56.5 37.5t-22 65zM34 485.5q-29 49.5 3 108.5q12 23 40 27t55.5 -7.5t48.5 -36t21 -52.5q0 -33 -18.5 -50.5 t-62.5 -26.5q-58 -12 -87 37.5z" />
<glyph unicode="&#x3c;" horiz-adv-x="798" d="M22 628q-7 55 24 94.5t92 66t129 48t154 55t147 72.5q105 67 146 68q28 1 48 -37t16.5 -78.5t-31.5 -45.5q-29 -6 -62 -35q-41 -36 -161.5 -91.5t-196.5 -73.5q-65 -16 -68 -29q-3 -15 90 -59t155 -58q30 -6 45.5 -11t23.5 -10t14.5 -11t26.5 -17.5t51 -25.5 q62 -28 81.5 -53.5t11.5 -67.5q-11 -55 -51 -57.5t-150 45.5q-64 28 -163 76t-165.5 78t-106.5 40q-58 13 -75 33.5t-25 83.5z" />
<glyph unicode="=" horiz-adv-x="419" d="M20.5 814.5q-0.5 38.5 15.5 49.5q17 10 85.5 20t101.5 4q8 -1 30.5 -4.5t41.5 -7t40 -7.5t34.5 -9.5t15.5 -10.5q22 -65 5 -114q-8 -23 -32 -27t-142 -2q-135 2 -155 9q-14 6 -24 27q-16 34 -16.5 72.5zM21.5 501.5q2.5 37.5 23.5 50.5q20 12 108.5 14t160.5 -8 q58 -8 75 -31.5t5 -79.5l-11 -53l-165 -1q-123 -1 -146 3.5t-35 29.5q-18 38 -15.5 75.5z" />
<glyph unicode="&#x3e;" horiz-adv-x="796" d="M20.5 925.5q0.5 44.5 24.5 71.5q45 50 177 -27q79 -46 174 -83.5t158.5 -55.5t111.5 -38.5t56 -41.5q6 -16 14 -24.5t15 -11t13 -8t9.5 -21.5t3.5 -44q0 -46 -5 -67.5t-27 -36.5t-48 -22t-87 -30.5t-126 -56.5q-151 -77 -268.5 -122.5t-136.5 -34.5q-28 17 -36 55t10 66 q18 27 114.5 76.5t151.5 59.5q34 7 123 48t107 58q5 5 3 10.5t-10 7.5q-108 28 -256 89.5t-183 92.5q-31 28 -59 38q-24 8 -23.5 52.5z" />
<glyph unicode="?" horiz-adv-x="774" d="M21 1108q3 14 11 23.5t26 18t38 16t59 22.5t77 32q42 19 149.5 19.5t143.5 -18.5q44 -23 125.5 -112.5t94.5 -129.5q10 -31 8.5 -55.5t-18.5 -76.5q-35 -111 -75.5 -166.5t-118.5 -100.5q-45 -26 -70 -47.5t-28.5 -31t-12 -17t-27.5 -11t-68 -8.5q-101 -10 -114 3t-3 125 q8 84 15 100.5t41 30.5q30 12 50.5 12t31 0.5t24.5 14.5q22 22 33 22q13 0 56.5 55t43.5 71q0 15 -22 43.5t-50 49.5q-22 17 -84 22t-71 -9q-7 -13 -29 -13q-16 0 -73.5 -41t-64.5 -41q-14 0 -58 89t-40 109zM219 100q-89 106 54 231q42 37 70 40.5t63 -24.5 q63 -49 63 -122.5t-63 -125.5q-52 -44 -101 -43.5t-86 44.5z" />
<glyph unicode="@" horiz-adv-x="1220" d="M21 560q4 72 46 193q48 137 48 154q0 19 56.5 93.5t97.5 109.5q35 30 95.5 60t114.5 44q37 10 193 4q107 -5 146 -13.5t117 -45.5q66 -31 100.5 -57t67.5 -68q36 -45 52.5 -85t21.5 -66.5t14 -37.5q5 -7 8.5 -60.5t-7.5 -137.5t-42 -145q-29 -57 -54 -78t-115 -64 q-60 -29 -137.5 -22.5t-122.5 44.5q-37 32 -53.5 32t-53.5 -32q-27 -23 -43 -26t-55 7q-58 16 -126 79q-48 44 -58.5 63.5t-10.5 62.5q0 107 56 193t134 99q43 7 182.5 1.5t154.5 -15.5q11 -6 2 -175q-6 -110 -3.5 -142t17.5 -45q24 -20 61.5 -4t66.5 59q22 33 26.5 61.5 t0.5 120.5l-5 134l-55 56q-102 106 -245 144q-49 13 -80 13t-100 -13q-107 -20 -128 -36q-119 -89 -181 -223t-42 -259q16 -101 63 -156t167 -113q69 -33 115 -43t179 -20q78 -6 110.5 -9t57.5 -8.5t30 -11t11 -18.5q16 -37 -3 -59.5t-85 -45.5q-74 -26 -170 -19 q-111 8 -183.5 22.5t-97 28.5t-48.5 28.5t-47 19.5q-16 4 -51.5 29t-70.5 58q-53 50 -73 80.5t-39 89.5q-31 98 -27 170zM506 639.5q-20 -47.5 30 -86.5q28 -22 71.5 -27t68.5 11q17 12 13 93q-4 66 -17.5 77t-72.5 -3q-73 -17 -93 -64.5z" />
<glyph unicode="A" horiz-adv-x="1716" d="M20 267q-1 4 -1 8q0 13 7 27q10 27 26 33t90 8q71 2 104 5.5t52.5 17t24.5 27.5t25.5 50t50.5 73q32 39 32 65q0 21 40 105.5t71 128.5q26 38 35 93q7 42 3 49.5t-36 7.5q-34 0 -50.5 13.5t-33.5 7.5q-27 -9 -48.5 21t-25.5 82q-4 50 -20.5 90t-16.5 59q0 13 6.5 18.5 t48 11t130 6.5t254.5 1l227 -1l30 -59q20 -39 39.5 -64.5t42.5 -65.5t59 -127q28 -68 51 -121t30 -69t13.5 -34.5t16.5 -50.5q16 -54 58 -139t77 -136q25 -36 41.5 -46t57.5 -12q35 -2 58.5 -7.5t48 -15.5t34.5 -13q14 -5 19 -23.5t5 -70.5q0 -87 -13 -107q-8 -13 -50 -17 t-166 -4h-202l-28 79q-15 42 -33 68.5t-29 34.5t-16.5 19.5t-2.5 31.5q6 36 -14 43q-6 2 -26 2q-26 0 -78 -4q-92 -6 -194 -14q-92 -8 -123 -8h-7q-33 1 -61.5 -11t-28.5 -28q0 -9 -23 -43.5t-51 -77t-37 -65.5q-10 -26 -36.5 -30t-174.5 -4h-59t-47 1t-38 1.5t-28 3.5 t-22 5t-15 8t-11 10.5t-6.5 14.5t-6 17.5l-4.5 22.5q-6 29 -16.5 49.5t-18 26.5t-10.5 22zM727 592q3 -4 20 -6q8 -1 20.5 -0.5t27.5 0.5q31 2 63 4t78 5t79 4q52 2 58 24q1 3 1 7q0 23 -30 72q-36 58 -36 69q0 12 -51.5 103t-58.5 91q-29 -2 -76 -81t-47 -125 q0 -23 -15 -61q-14 -38 -26 -68q-8 -21 -9 -31q0 -5 2 -7z" />
<glyph unicode="B" horiz-adv-x="1300" d="M21 1139v13q0 53 15 72q17 21 86 39q40 11 88 11t108 -5q50 -4 82 -4h12q84 1 156 1q202 0 312 -10q150 -14 205 -54q51 -37 74 -98t26 -164q1 -36 1 -61q0 -37 -2 -51q-4 -22 -32 -51q-35 -36 -35.5 -50t31.5 -39q34 -26 83 -129q39 -82 47 -159q2 -20 2 -40 q0 -61 -17 -133q-9 -40 -17.5 -61t-20 -38.5t-35 -24.5t-52 -11.5t-81.5 -7.5q-167 -11 -282.5 -11t-169 5.5t-141.5 16.5t-165 16q-173 12 -197 30q-13 10 -16 41q-2 19 -2 56q0 25 1 59l4 139l58 4q40 3 48 9q16 13 27 87q3 18 13 99q13 105 15 195v20q0 73 -10 103 q-6 18 -18 22t-49 0q-17 -2 -32 -2q-58 1 -84 29q-33 36 -36 137zM576 458v-8q0 -63 21 -71q10 -4 36 -4q47 0 145 12q154 18 180 35q30 19 32 58v7q0 34 -24 55q-24 22 -184 30q-71 3 -108 3q-19 -1 -29 -1q-30 -2 -45 -19q-22 -25 -24 -97zM582 904q1 -39 11.5 -48.5 t66.5 -23.5q49 -13 95 -13q2 1 4 1q48 0 129 16q46 9 60 37q6 13 6 33q0 22 -8 52q-11 39 -20.5 50.5t-31.5 11.5q-37 0 -62 5q-11 2 -26 2q-39 0 -109 -13q-97 -18 -106 -35t-9 -59v-16z" />
<glyph unicode="C" horiz-adv-x="1095" d="M20 652v9q0 31 6 75q8 50 27 108q47 140 118.5 227.5t187.5 145.5q50 25 81 34.5t39 7t18 -2t25 9.5q13 8 58 10h17q39 0 86 -6q58 -6 122 -30t106 -62q23 -21 48 -31.5t43 -26.5t40 -59t28 -77t6 -111v-56t-3.5 -41.5t-5.5 -31.5t-13.5 -19t-20 -13t-31.5 -4.5t-41 -2 t-57 1.5l-137 4l-14 104q-12 89 -27.5 116t-65.5 45q-21 8 -41 8q-33 0 -61 -21q-46 -33 -95 -131q-35 -67 -44.5 -102.5t-9.5 -93.5q0 -86 35 -153t93 -91q43 -18 112 -18q20 0 41 2q98 6 135 36q58 46 82 51.5t52 -20.5q35 -33 35 -49q0 -10 9 -20.5t18 -22.5t15 -29 t-1 -47.5t-29 -71.5q-19 -34 -32.5 -53t-30.5 -34t-42.5 -21.5t-56 -11t-84.5 -7.5q-64 -4 -125 -4q-74 0 -142 6q-76 7 -104.5 14.5t-46.5 27.5q-20 21 -40.5 29t-37 20.5t-36.5 51.5q-22 43 -49.5 81.5t-56.5 98.5q-12 24 -34 63t-32.5 60t-22.5 57.5t-13 70.5z" />
<glyph unicode="D" horiz-adv-x="1411" d="M62 1254q39 6 148 8q90 3 142.5 6.5t55.5 5.5t25 2h6q20 0 44 -3q60 -5 161 -5h21q19 0 38 1q93 -1 161 -3q82 -2 116 -15q59 -22 133.5 -71t85.5 -74q14 -31 33 -31q20 0 54.5 -42t54.5 -89q33 -81 42 -135q8 -49 9 -139q0 -10 -1 -21q-1 -93 -14.5 -157.5t-30 -94.5 t-48.5 -82t-52 -96q-13 -27 -28 -46t-23 -19q-18 0 -89 -34q-67 -33 -114 -33h-5q-91 3 -180 3t-175 -3q-69 -2 -135 -2q-98 0 -188 5q-150 9 -192 41q-17 14 -17 120.5t17 117.5q15 10 111 14q27 1 38 1t29.5 3.5t24.5 4.5t16.5 9.5t12.5 13t6 21.5t3 27.5t-1.5 38.5 t-2.5 47.5t-6 60.5q-18 181 -20 245l-2 62l-101 14q-101 14 -112 34q-13 25 -33.5 98.5t-20.5 93.5q-1 19 -21 41q-18 20 -17 34q0 16 41 22zM637 363l158 4q117 3 142.5 8.5t56.5 36.5q41 41 41 57t19 46q14 22 14 74q0 29 -4 67q-12 106 -41 145q-29 41 -29 53 q0 14 -18 27t-55.5 26t-63.5 20.5t-75 19t-57 13.5q-7 2 -14 2q-26 0 -34 -33q-10 -41 -19 -214q-1 -15 -1 -23t-1 -23t-1.5 -25t-1.5 -26t-1 -28t-1.5 -28t-2.5 -30t-2 -31t-2 -33z" />
<glyph unicode="E" horiz-adv-x="1089" d="M22 644q4 426 15 495q10 60 48 101l39 41l197 -5q205 -6 472 -11l275 -5l-3 -206q-4 -207 -14 -247q-9 -31 -24.5 -37t-95.5 -9q-16 -1 -30 -1q-83 0 -125 20l-47 23l10 78q11 76 11 103q0 6 -1 10q-3 19 -31 27q-34 9 -138 11h-31q-81 0 -123 -7l-51 -8l-4 -103 q-1 -20 0 -36q0 -70 13 -81q18 -14 137 -16l121 -2l1 -91q1 -43 4.5 -80t6 -51.5t0.5 -27.5t-11 -25q-14 -18 -24 -18t-16 9.5t-18 11t-30 -13.5q-24 -22 -127 -26l-102 -4v-151l115 -8q58 -4 104.5 -4.5t81.5 4.5q52 6 60 12q10 9 12 54q1 45 3 68q1 18 22.5 37t44 25.5 t37.5 -1.5q13 -10 58 -10q16 0 36 1l77 5l17 -50q18 -50 18 -202l1 -151l-48 -3q-14 -1 -451 -5q-103 -1 -177 -1q-130 1 -171 3q-64 4 -91 22q-37 28 -48 72q-7 26 -7 237q1 95 2 227z" />
<glyph unicode="F" horiz-adv-x="1030" d="M22 1078q2 12 2.5 25.5t8 26t12.5 21.5t19 30q23 35 35 49t27.5 19t29.5 3t51 0t82 11q64 13 297 13h82q304 -2 324 -19q8 -7 12.5 -24t4.5 -51.5t-1.5 -67.5t-4.5 -97t-4 -114l-2 -69l-107 -4q-35 -4 -58.5 -1.5t-33 2.5t-16 7.5t-8.5 13.5t-10 20t-20 28q-21 24 -28 83 q-5 38 -7 42q-8 13 -50 13q-9 0 -19 -1q-14 -1 -145 -11q-35 -3 -52 -4t-41 -4t-33.5 -4t-24 -6.5t-18 -8t-11 -11t-8.5 -14t-3 -19t-2 -23v-29.5q0 -32 0.5 -47t7 -30t13 -19t28.5 -5.5t43 1t65 9.5q66 10 95 10h4q28 -1 55 -15q51 -27 63 -49q6 -11 6 -28q0 -18 -6 -43 q-10 -42 -8 -57.5t2 -23t-10 -19.5q-17 -20 -129 -21q-158 -2 -181 -8q-25 -6 -30 -29q-2 -5 -6 -38q-3 -40 -3 -63q0 -12 1 -20q2 -22 11 -75t12 -92q4 -45 -2 -62.5t-35 -48.5q-30 -31 -50 -38t-78 -7q-31 0 -50 2t-34.5 9t-23.5 17t-13.5 30.5t-7 44.5t-2.5 64 q-1 49 -1 90q0 179 18 191q7 4 7 20t-6 69q-10 104 -17 199q-3 44 -7.5 94.5t-6.5 73.5t-4 50q-1 15 -1 26q0 7 1 13z" />
<glyph unicode="G" horiz-adv-x="1187" d="M21 717v26q0 74 5 106q6 37 28 82q44 91 101 165t92 86q24 8 77.5 40t89.5 33t92 19q42 14 68 14q9 0 16 -2q36 -8 76.5 -8t136.5 9q53 5 81 5q14 0 21 -2q22 -3 52 -28q11 -9 17 -15.5t11.5 -13t8.5 -18.5t6 -22.5t5.5 -35t4.5 -46t6.5 -65.5t8.5 -84q2 -17 3 -27 t0 -21.5t-1.5 -17t-6.5 -12t-10.5 -8.5t-17.5 -4.5t-23 -2t-32 1t-40 2t-50 4.5l-140 12l-4 55q-4 52 -20.5 71.5t-49.5 13.5q-31 -5 -49.5 2t-27 11t-43 -15t-103.5 -72q-49 -38 -70.5 -62.5t-34 -55.5t-17.5 -40q-14 -24 -14 -70q0 -40 11 -96q23 -120 72 -188 q30 -42 82.5 -64t163.5 -39q76 -12 104 -12h3q27 1 59 16q27 13 40 28t17 40q8 40 -13 54.5t-102 24.5q-57 8 -73.5 24.5t-25.5 76.5q-9 62 -22 77q-13 17 -2.5 55t30.5 49q11 6 55 6q45 0 126 -7q158 -12 198 -29q25 -11 54.5 -14.5t44.5 -10t25 -26.5q16 -32 31 -47 q16 -16 16 -205v-12q-1 -200 -17 -277l-16 -80h-84q-103 0 -147 11t-54 40q-13 35 -29 21q-21 -17 -149 -30q-82 -8 -143 -8q-32 0 -58 2q-72 8 -102.5 23t-124.5 90q-72 58 -130.5 138.5t-74.5 143.5q-18 70 -18 215z" />
<glyph unicode="H" horiz-adv-x="1536" d="M20 353l88 3q89 4 99 14q6 6 12 61t14 139t16 132q7 44 7 90q0 24 -2 46q-5 70 -22 102q-10 20 -50 24q-8 1 -16 1q-31 0 -56 -14q-11 -6 -19 -6.5t-15.5 7t-12.5 22t-10.5 41t-10 60.5t-9.5 85q-3 31 -3 49q0 14 2 20q4 14 32 29q29 14 57 14l23 -2q36 -5 79 -5 q19 0 39 1q67 3 127 10q23 3 45 3q34 0 64 -7q50 -11 66 -46q3 -7 13 -26t12.5 -27.5t7.5 -33.5t6 -63q0 -19 0.5 -42.5t-0.5 -53.5v-59q0 -107 6 -118q7 -13 136 -13t183 -9q18 -3 31 -3q43 0 53 25q14 33 19 227l7 230l171 -4q80 -2 129.5 -8t61 -11t21 -7.5t23.5 -0.5h7 q33 1 51 -41q15 -36 14 -93q0 -18 -1 -37q-6 -79 -25.5 -99.5t-100.5 -32.5l-63 -9l-7 -261q-3 -97 -3 -160q0 -108 8 -119q13 -17 65 -17q36 0 49.5 -9t32.5 -46q17 -33 20 -56.5t-3 -63.5q-8 -47 -16.5 -57t-42.5 -13q-47 -4 -78 -19q-22 -11 -75 -11q-30 -1 -70 3 q-110 10 -151 34l-45 26l-4 176q-4 174 -21 180q-20 7 -192 12l-176 6l-20 -39q-20 -39 -20 -189v-18q0 -104 -11 -132q-14 -36 -70 -46q-39 -7 -182 -10h-1h-1h-1h-1h-1h-1h-1h-1h-1h-1h-1h-1h-1h-1h-1h-1h-1h-1h-1h-1h-1h-1h-1h-1q-72 -2 -119 -2t-71 2q-47 3 -58 16 q-17 19 -19 135z" />
<glyph unicode="I" horiz-adv-x="825" d="M23 254q8 37 43 51t145 23q76 6 97 12.5t26 25.5q7 28 7 148q-1 70 -3 174q-6 278 -18 291q-13 13 -121 20t-114 13q-23 24 -39 132q-7 52 -8 83q0 34 9 43q3 2 94 2q67 0 185 -1q274 -3 356 -8q46 -4 57 -16q12 -13 17 -138l5 -123l-165 -14l-9 -186q-2 -45 -4.5 -106 t-5 -124.5t-3.5 -85.5l-5 -130l44 -5q21 -2 35.5 -8t20.5 -12t12 -10.5t12.5 -4t18.5 7.5q24 16 45 7q18 -7 36 -83q12 -51 12 -81q0 -15 -3 -25q-13 -40 -73 -49q-49 -7 -225 -7h-84q-261 2 -320.5 15t-59.5 68q0 27 -12 49q-8 14 -7 32q0 10 2 20z" />
<glyph unicode="J" horiz-adv-x="1216" d="M24 458q4 39 11 58t12 24.5t25 13t34 14.5q22 12 131.5 12t165.5 -12q35 -7 42.5 -19.5t12.5 -74.5q6 -75 25 -101.5t68 -26.5q43 0 84 28t65 73q21 40 30 267q3 76 3 130q0 108 -12 129q-9 17 -32 22t-90 6q-134 2 -155 10q-19 6 -32 31q-1 3 -4 8q-16 30 -16 92v11 q2 70 20 88q19 19 360 29q121 4 203 4q148 0 168 -12q37 -23 49 -104q5 -26 5 -51q0 -48 -17 -87q-14 -33 -28 -39.5t-77 -10.5q-87 -5 -98 -16q-10 -10 -16 -106q-17 -310 -40.5 -434t-79.5 -200q-50 -68 -91 -98q-38 -26 -150 -36q-40 -3 -75 -3q-64 0 -111 11 q-46 10 -70 28t-68 71q-71 87 -101 109.5t-76 22.5q-53 0 -69 29q-10 18 -10 55q0 24 4 55z" />
<glyph unicode="K" horiz-adv-x="1454" d="M21 232q-1 20 -1 36q0 50 12 58q12 7 110.5 10t103.5 12q8 14 8 312v24q0 230 -14 268q-13 37 -87 37h-8h-3h-3h-3h-21q-53 0 -67 9q-6 4 -11 31t-5 59q0 48 7 72t27 48l34 40l203 -5q203 -5 215 -17q7 -2 4.5 -15t-8 -23.5t-10.5 -38.5t-3 -60q15 -295 25 -307 q7 -8 39 24.5t126 143.5q142 169 258 263l66 53l183 -5q183 -5 203 -22q19 -15 19 -54q0 -9 -2 -19q-6 -54 -36 -112q-31 -56 -61.5 -71t-115.5 -16q-129 -2 -203 -38.5t-116 -117.5q-11 -20 -11 -40q1 -15 7 -30q14 -34 84 -117q70 -84 70 -93q0 -11 70 -104l70 -94l78 -3 q24 -1 65 -2.5t49 -1.5q44 -2 56 -26q9 -18 9 -72q0 -18 -1 -41l-4 -107l-158 4q-92 2 -135 8.5t-74 22.5q-50 26 -130.5 106t-137.5 161q-19 26 -27 38t-21.5 29t-18 23t-15.5 13.5t-14 8.5t-13.5 0.5t-14 -4t-15.5 -12t-18.5 -15t-22.5 -21.5q-72 -68 -86 -68 q-30 0 -54 -150q-2 -12 -5 -33q-4 -31 -6 -43t-10.5 -27t-13.5 -18t-27.5 -8t-40 -5t-61.5 -1q-34 -1 -54 -1q-65 -1 -106 -1q-48 -1 -63 1q-29 4 -41 26q-19 34 -24 118z" />
<glyph unicode="L" horiz-adv-x="1177" d="M45 1242q23 20 65 22q12 1 35 0q56 0 174 -4q239 -9 254 -20q21 -16 35 -85q12 -57 12 -109q0 -11 -1 -21l-4 -81l-60 -4q-60 -4 -65 -20q-1 -4 -1 -22q0 -58 12 -263l17 -268l89 -8q44 -4 83.5 -4t73.5 4q51 6 62.5 15.5t27.5 59.5q20 60 48 75q22 12 79 12q15 0 33 -1 q50 -3 70 -11t41 -33t27 -50q6 -22 5 -66v-14q0 -89 -11 -144l-11 -55l-81 -1q-77 0 -137 -16q-103 -28 -329 -32h-52q-186 0 -269 23q-17 4 -17 345q0 286 -4 378.5t-18 106.5t-68 18q-57 4 -72.5 18.5t-15.5 63.5q0 43 -14 77t-26 48t-12 29q0 18 25 37z" />
<glyph unicode="M" horiz-adv-x="1685" d="M22 212q-1 18 -1 33q-1 27 3 41q6 22 30 53q27 35 44.5 42t79.5 7q87 0 94 11q5 8 10 113t9.5 229.5t6.5 147.5q2 28 -13 42t-88 50l-104 51l1 83q1 50 8 74t27 45q15 15 23 20t20 9t42 1.5t66.5 -4.5t116 -5.5t170.5 -5.5q79 -1 110 -6t36.5 -12t13.5 -30t28 -45 q14 -15 39 -64t46 -88t28 -39t70 84.5t114 161.5q21 31 67 51q31 13 64 14q15 0 31 -3q48 -9 201 -20q44 -3 69 -5.5t52 -7t40 -8.5t27.5 -14t20 -19t13 -28t10.5 -36.5t8 -47.5q10 -64 10 -88t-12 -41q-13 -18 -36.5 -21.5t-74.5 -4.5l-87 -1l-9 -62q-2 -18 -2 -39 q0 -33 5 -75q4 -35 4.5 -73t-4.5 -78q-9 -84 -9 -146v-22l1 -69l179 -28l-5 -89q-5 -90 -28 -130l-23 -40l-137 3q-15 0 -42 1q-94 2 -118.5 11.5t-62.5 63.5q-31 43 -37 70.5t-6 125.5v40q0 210 -10 233q-8 19 -32 -27l-21 -42q-22 -47 -42.5 -69t-37.5 -35.5t-30 -39.5 q-16 -29 -30 -34q-9 -3 -36 -3q-17 0 -40 1q-48 2 -77.5 14t-49 37.5t-32.5 52.5t-37 73t-54 86q-32 44 -47 78q-16 36 -31 37q-13 0 -7 -30q6 -34 15 -285l8 -255l-34 -32q-44 -41 -131 -47q-20 -1 -46 -2q-88 0 -244 17l-89 10z" />
<glyph unicode="N" horiz-adv-x="1560" d="M21 239q1 108 21 116q23 8 126 10l107 2l5 55q1 13 1 36q0 74 -12 253q-5 76 -8.5 118t-10.5 80t-13 53.5t-19 27.5t-27 14t-39 2q-43 0 -55 7.5t-26 40.5q-18 43 -24 119l-5 72l55 11q55 11 185 11h131l55 -53q165 -160 344 -393q68 -88 144 -171.5t89 -83.5q4 14 4 81 q-1 19 -1 45q-2 108 -8.5 246.5t-13.5 167.5q-9 39 -9 67q0 14 2 25q7 34 38 59q20 17 58 19q13 1 36 0q46 0 135 -3q198 -8 222 -29q33 -30 33 -125q0 -37 -5 -85l-10 -90l-75 -10q-75 -11 -88 -24q-11 -11 -12 -145v-22q0 -123 10 -245q6 -73 24.5 -98.5t65.5 -25.5 q52 0 66 -28q12 -24 12 -100v-23l-3 -117l-82 -9q-54 -6 -99.5 -9t-76.5 -3t-57 2.5t-40 5t-26.5 7.5t-16 7.5t-9.5 8.5l-6 5q-26 20 -54.5 53.5t-84.5 102.5t-122 141q-115 126 -161 181.5t-73 102.5q-27 46 -42 44q-12 -1 -6 -33q6 -31 6 -146v-63q-2 -170 -11 -236 q-11 -85 -46 -123q-25 -26 -45 -30q-9 -2 -30 -2q-27 0 -75 3q-36 2 -75 2h-48q-64 -2 -98 -6.5t-69.5 -5t-38.5 7.5q-19 16 -19 115v10z" />
<glyph unicode="O" horiz-adv-x="1286" d="M21 656v29q0 68 4 100q5 38 19 60q24 36 24 52q0 10 27.5 51t27.5 58q0 22 55.5 86t92.5 85q68 38 114 52.5t126 22.5q120 13 169 13q6 -1 10 -1q46 -2 100 -23l134 -52q69 -25 161 -117t116 -158q41 -114 55 -202q9 -55 9 -95q-1 -23 -3 -41q-8 -48 -22.5 -77.5 t-29.5 -48.5t-15 -31q-1 -22 -58 -90.5t-112 -112.5q-115 -92 -213 -116q-44 -11 -99 -10q-68 0 -153 16q-133 25 -162 37l-138 56q-104 43 -189 209q-36 69 -42.5 103t-7.5 145zM370 209q0 -14 14 -14t14 14t-14 14t-14 -14zM386 641q9 -11 8 -20t-4 -25t8 -57 q14 -49 52.5 -80t115.5 -53q47 -14 88 -14q14 0 28 2q53 6 128 41q45 21 62.5 37.5t28.5 48.5q20 58 20 112q0 124 -104 232q-46 49 -70 63t-63 17q-7 1 -14 1q-44 0 -97 -22q-62 -24 -120 -70q-35 -28 -61 -109q-14 -45 -15 -73q0 -21 9 -31z" />
<glyph unicode="P" horiz-adv-x="1191" d="M22 154q-1 6 -2 17q0 21 5 63q9 81 18 96.5t46 15.5q88 0 128 33q23 19 23 42q0 18 -14 39q-20 33 -20 262q-1 196 -15 233t-90 37q-20 0 -40 6t-27 14q-14 17 -14 74q0 18 2 40q6 92 25 100q6 3 21.5 11t22 11t23 9t24 4.5t25.5 -2.5q34 -8 59 6q16 9 76 9 q138 0 512 -47q103 -13 138.5 -21t60.5 -23t65 -57q70 -72 86 -130q10 -36 11 -108q0 -43 -4 -99q-8 -113 -15.5 -144.5t-36.5 -68.5q-50 -63 -127 -92.5t-209 -34.5h-1h-1h-1h-1h-1h-1h-1h-1h-2h-1h-1l-1 -1h-1h-1h-1h-1h-1h-1h-1h-1h-1h-1h-1h-1h-1h-1h-1h-1h-1h-1h-1h-1 h-1h-1h-1l-1 -1h-1h-1h-2q-151 -6 -173 -15q-17 -6 -22 -30q-1 -2 -2 -7l-1 -7q-3 -13 -3 -38q-1 -40 7 -112q8 -80 8 -113q0 -14 -1 -18q-9 -25 -67 -29q-20 -2 -41 -2q-39 0 -81 6q-64 8 -140.5 18.5t-102.5 10.5q-46 0 -74 16q-19 11 -23 27zM548 934q-1 -11 -1 -25 q0 -33 5 -82l8 -110h93q60 0 87.5 7.5t68.5 34.5q60 40 68 53q3 4 3 20q0 20 -5 57l-10 68l-76 3q-58 3 -113.5 17.5t-77.5 14.5q-26 0 -36.5 -11t-13.5 -47z" />
<glyph unicode="Q" horiz-adv-x="1409" d="M20 708q1 135 17 203q11 47 27 73.5t51.5 64t61.5 71.5q39 51 63 51q16 0 27.5 8.5t21 20t43.5 27.5t87 27q59 13 191 13q22 0 46 -1q168 -2 207 -19q43 -18 134 -107t102 -123q9 -30 30 -67t39 -64.5t35 -72.5t19 -91v-10q0 -44 -12 -110q-11 -48 -26 -86t-27 -53 t-22.5 -31t-11.5 -21t6 -21q13 -20 68 -40t122 -29l69 -9v-220l-41 -2q-20 -1 -136 -12l-95 -9l-80 84q-33 35 -62.5 59t-39.5 24q-14 0 -36.5 -12.5t-50.5 -28.5t-97 -31t-165 -18q-14 -1 -26 -1q-35 0 -61 5q-37 5 -59 12.5t-84.5 33.5t-118.5 47q-68 25 -114 89t-87 194 q-15 46 -15 174v8zM304 721q-1 -4 -1 -8q0 -23 12 -77q16 -79 56 -140q38 -57 69 -57h4q30 3 52 -31q15 -24 30 -28q6 -2 18 -2q19 0 52 4q45 5 80.5 21t47 35t-1.5 38q-19 22 -44 73.5t-25 67.5q0 17 31 53q20 23 34 28t41 0q45 -10 94 -50q51 -40 77 -40q12 0 19 8 q6 8 6 23q0 19 -7 34t-25 54t-37 94q-30 93 -74 138q-40 41 -80 48q-13 2 -35 2q-44 0 -123 -9q-95 -11 -116 -19.5t-46 -45.5q-34 -48 -34 -70q0 -19 -41 -80q-30 -44 -33 -64z" />
<glyph unicode="R" horiz-adv-x="1472" d="M32 291q20 69 50 99q27 27 68 27h9q8 -1 16 -1q40 0 75 13q14 5 19 8.5t10 8t4.5 17t-1.5 24t-5 42.5q-8 60 -8 148q1 22 1 46q2 119 14 187q5 24 5 42q1 26 -9 36q-16 18 -74 18q-68 0 -92 16q-18 12 -17 40q0 9 2 20q6 28 -2 53t-17.5 38t-12.5 26.5t13.5 26t59.5 28.5 q48 17 122 20q40 2 137 2q83 0 208 -1q234 -3 331.5 -9.5t154.5 -24t124 -62.5q63 -42 86 -84.5t24 -119.5v-11q0 -118 -40 -214q-42 -100 -120 -160l-73 -55l45 -39q18 -15 32.5 -24.5t20 -12.5t12 -9t12.5 -16t17 -32q20 -38 35.5 -47.5t70.5 -15.5q80 -9 97 -23 q16 -14 16 -99t-16 -102q-16 -16 -187 -16q-113 0 -148.5 4.5t-61.5 23.5q-40 29 -40 43t-64.5 103t-120.5 152q-39 43 -56 51q-12 5 -45 6q-13 0 -29 -1l-77 -4l-4 -124q-4 -123 -32 -183l-27 -60l-127 10q-69 5 -134 7t-98 2t-63.5 1t-44.5 7t-25.5 18t-21.5 35t-10 42 q0 20 12 59zM618 869l4 -130l61 -11q34 -6 76 -6q31 0 67 3q84 8 112 27q12 8 25.5 29.5t20.5 44.5q11 34 11 48q0 15 -22 40q-29 31 -29 54q0 20 -17 35q-17 14 -160 19q-38 1 -66 1q-78 0 -81 -10q-4 -9 -3 -59q-1 -33 1 -85z" />
<glyph unicode="S" horiz-adv-x="1138" d="M20 419q0 31 1.5 48t10 32t19.5 20.5t37.5 9t56 2.5t82.5 -4l158 -9l14 -42q14 -41 38.5 -78.5t37.5 -37.5q14 0 54 -29q28 -20 44.5 -22t61.5 9q64 16 89 39t25 66q0 36 -27.5 65t-55.5 40l-27 11q-39 0 -136 37t-149 72q-96 64 -127 105t-44 120q-9 50 -9 78v8 q2 28 17 68q20 50 54.5 97t51.5 47q8 0 45.5 16t89.5 39t76 32q51 19 145 19h27q78 -1 116.5 -11t119.5 -49l119 -57l9 -73q4 -33 4 -68q0 -43 -6 -88l-11 -83l-79 -4q-23 -1 -43 -1q-61 0 -89 11q-38 15 -48 59q-12 51 -38.5 71.5t-86.5 24.5l-68 4l-38 -69 q-39 -71 -39 -79q0 -13 83 -47q84 -34 164 -52q286 -64 310 -175q8 -37 26.5 -72t27.5 -65q5 -18 5 -40q0 -15 -2 -32q-14 -105 -75 -165t-196 -104q-65 -21 -117 -27q-45 -6 -133 -6h-28q-122 1 -160 7t-88 32q-46 24 -77 51t-41.5 43t-31 26.5t-54.5 10.5q-37 0 -49.5 8 t-25.5 40q-20 47 -20 121z" />
<glyph unicode="T" horiz-adv-x="1196" d="M21 1034q1 138 13 145q13 8 9 45q-3 26 8.5 32t77.5 12q105 10 342 10t276 -9q20 -5 56 -5q31 0 77 4q28 2 51 2q52 0 68 -13q24 -12 54 -12q8 1 17 1q40 4 52 -9q23 -17 39 -113q15 -90 15 -182v-12q-1 -99 -21 -126q-9 -13 -104.5 -15t-121.5 -17q-16 -10 -29 -10 q-24 0 -32 37q-6 28 -9 129l-2 66l-144 -8l-10 -193q-11 -209 -11 -311q0 -81 7 -94q10 -14 47 -14q43 0 70.5 -44.5t30.5 -119.5q0 -12 1 -22q0 -62 -16 -76q-9 -8 -31.5 -8t-57.5 8q-44 10 -64 11t-25.5 -5t-21.5 -12t-52 -10q-15 -1 -36 -1q-32 0 -79 3q-62 4 -100 4 q-47 0 -61 -6q-25 -12 -52 -12q-10 0 -21 2q-38 6 -47 31q-37 97 -37 155q0 14 2 25q8 40 41 56.5t139 29.5q67 9 83 21q10 8 10 280.5t-11 303.5q-7 18 -47 18q-37 0 -54 -24t-17 -76q0 -49 -17 -62q-17 -14 -126 -19q-40 -2 -64 -2t-32 2q-16 4 -23 30q-10 38 -10 157v22z " />
<glyph unicode="U" horiz-adv-x="1570" d="M20 1171q0 15 10 36q11 26 23 30.5t54 -1.5q21 -3 36 -3q28 0 34 10q6 9 68 9q41 0 103 -4q162 -10 214 -28q43 -15 66.5 -40.5t14.5 -48.5q-3 -7 -3 -26q0 -39 11 -128q16 -133 30 -161q9 -19 7 -36t-9 -26t-9.5 -20.5t5.5 -20.5q14 -18 30 -132q16 -106 40 -136t95 -30 q77 0 117 19.5t71 71.5q26 44 30 82q4 31 4 142v53q-1 120 -8 209t-12 118t-3.5 51.5t15.5 48.5l23 44l148 -2q156 -2 229 -10l83 -9l8 -151q6 -105 6 -139q0 -15 -1 -16q-4 -4 -89 -6q-90 -2 -105.5 -39.5t-15.5 -254.5q0 -234 -15 -264q-43 -84 -43 -103q0 -8 -16.5 -27 t-40.5 -38q-81 -66 -118.5 -81t-122.5 -15q-66 0 -108.5 -7t-54.5 -13q-10 -5 -27 -5h-10q-24 2 -71 17q-39 12 -61.5 23t-26 16t-11 7.5t-24.5 2.5q-33 0 -100.5 50t-101.5 100q-95 141 -109 469l-7 185l-84 -5q-22 -1 -38 -1q-27 0 -37 3q-16 5 -32 30q-19 29 -28 81.5 t-22 80.5q-11 23 -11 38z" />
<glyph unicode="V" horiz-adv-x="1693" d="M24 1193q11 27 47 23q6 -1 12 -1q24 0 52 10q35 12 61 18q7 2 15 2q26 0 72 -13q57 -20 171 -22q92 -1 122 -17.5t54 -80.5q33 -87 122 -304.5t100 -237.5q17 -31 27 -31q20 0 88.5 159.5t93.5 262.5q9 37 32 78t23 56q0 20 27.5 74.5t42.5 63.5q14 9 113 19q63 7 94 7 q18 0 25 -2q37 -10 82 -18l172 -34l2 -68q1 -53 -21.5 -105.5t-46.5 -52.5q-7 0 -16 -9.5t-14 -21.5q-9 -20 -28.5 -26t-87.5 -9q-101 -4 -120 -19q-31 -26 -75 -117.5t-81.5 -188.5t-41.5 -104l-149 -296q-26 -58 -52 -72t-113 -19l-103 -5l-39 55q-106 149 -106 177 q0 39 -84 268.5t-107 252.5q-16 16 -16 32q0 24 -31.5 35.5t-105.5 15.5q-42 2 -61.5 4t-35 10t-19.5 14.5t-19 29t-30 41.5q-24 30 -41 86q-10 32 -10 55q0 14 4 25z" />
<glyph unicode="W" horiz-adv-x="2097" d="M21 1166q4 34 44 58q29 17 70.5 22t168.5 6l195 2l20 -39q23 -44 50.5 -117.5t27.5 -91.5q0 -22 15 -37t40.5 -88.5t26.5 -103.5q1 -27 16.5 -64t26.5 -37q10 0 65.5 117t95.5 219q54 138 86 160q33 23 119 31q25 2 44 2q46 0 60 -13q11 -11 22.5 -15.5t19 -6t16.5 -8 t18.5 -25.5t20.5 -55q21 -66 56.5 -157.5t48.5 -128.5q24 -69 35 -71q7 -2 17 17q3 5 7 13q26 51 65.5 200t43.5 209q2 39 9 46.5t36 5.5q57 -5 120 -5q31 -1 65 1q50 2 97.5 2t91.5 -2q88 -4 95 -20q1 -3 1 -8q0 -16 -16 -48q-21 -42 -21 -81q0 -48 -27 -100 q-19 -36 -34.5 -45.5t-64.5 -13.5q-21 -2 -33 -5t-25 -7.5t-22.5 -19l-19 -29t-21.5 -49.5t-23.5 -68.5t-31.5 -96.5q-57 -182 -78 -207q-18 -21 -18 -34q0 -20 45 -20q53 0 67 -27q10 -18 9 -63q0 -22 -2 -50q-7 -97 -20 -110q-13 -14 -215 -16h-40q-163 0 -173 12 q-8 10 -48.5 130t-48.5 131q-6 8 -41.5 118t-62.5 201q-3 11 -11.5 15.5t-15.5 -0.5t-7 -17q0 -15 -41 -67t-41 -63q0 -15 -32 -66q-29 -47 -81 -169t-52 -142q0 -18 -35 -51q-26 -23 -58 -26q-10 -1 -30 -1q-48 0 -156 5l-209 9l-39 44q-25 29 -31 50q-4 14 -4 41 q0 13 1 30l4 75l93 2q95 2 109 16q3 3 3 10q1 21 -23 77q-32 76 -69 153t-37 84t-49 112q-36 78 -60.5 102t-46.5 2q-19 -19 -40 -19t-44 20q-46 38 -69 128q-21 80 -21 116q0 5 1 10z" />
<glyph unicode="X" horiz-adv-x="1441" d="M20 1207q0 17 48 27q43 9 116 9h15q55 0 95 6t54 7h2q17 0 87 -11q73 -14 117 -42t61 -56.5t47 -81t64 -92.5l45 -53l33 53q19 32 65.5 95.5t71.5 113.5l31 59l166 -8q37 -2 61 -3.5t49.5 -4t39.5 -5t29.5 -8.5t22.5 -10.5t14.5 -14.5t10 -19.5t4.5 -25.5t1.5 -31 t-1.5 -38q-4 -99 -10 -112q-5 -10 -129 -10h-122l-54 -72q-22 -30 -49 -60t-39.5 -44t-24 -33.5t-8.5 -38t13.5 -45.5t35.5 -68q24 -40 39 -67.5t18.5 -36.5t12.5 -22t27 -35l40 -48h297l4 -116q2 -56 2 -59q0 -18 -4 -36q-4 -22 -6 -30t-15 -18.5t-23.5 -13t-38 -6 t-50 -3.5h-67.5q-123 0 -165 10.5t-140 65.5q-28 16 -85.5 99t-70.5 125q-9 29 -27 29q-30 0 -86 -83q-51 -75 -73 -129l-1 -4q0 -9 -16.5 -21.5t-51.5 -35.5t-55 -38q-27 -20 -119 -23q-30 -1 -60 -1q-58 0 -108 4q-76 6 -80 8q-15 7 -17 31q-1 6 -1 16q0 30 5 94 q9 132 24 151q15 18 130 18h116l74 80q106 114 132.5 151t26.5 70q0 42 -12 49q-12 8 -55 71t-43 73q0 12 -24 33q-23 21 -145 21h-22h-26q-118 0 -133 17q-15 16 -52.5 110.5t-37.5 116.5z" />
<glyph unicode="Y" horiz-adv-x="1423" d="M22 1168q4 19 20 28q23 13 193 24l168 10l66 -55q27 -22 51 -36.5t30 -12.5q19 7 40 -29.5t51 -128.5q26 -78 56.5 -130t51.5 -52q10 0 72.5 104t95.5 175q17 37 33 58.5t25 26.5t14.5 12t5.5 21t8 27t29 24t54 16q21 3 52 3q16 0 34 -1q53 -2 120 -14q34 -6 49.5 -9 t31.5 -11.5t20.5 -14.5t8.5 -25q2 -15 2 -28v-7q-1 -16 -4 -53q-9 -103 -15 -115q-5 -10 -64 -10q-69 0 -102.5 -6.5t-55 -24t-44.5 -58.5q-33 -57 -62 -89.5t-51 -75.5q-26 -51 -54.5 -86.5t-43 -49.5t-25.5 -45.5t-14 -86.5l-4 -90l151 -13l9 -83q3 -23 3 -44 q0 -52 -17 -87l-23 -48l-171 6q-157 5 -296 7l-124 1l-8 103q-3 37 -3 64q0 44 8 61q13 26 67 26q72 0 90 21.5t18 105.5q0 71 -7.5 91t-45.5 56q-53 49 -101 125q-56 89 -92 111t-143 33l-125 14l-13 48q-14 54 -19 140q-2 31 -2 51q0 17 1 26z" />
<glyph unicode="Z" horiz-adv-x="1126" d="M21 866v6q-1 14 3 26q4 16 15 49q16 52 20 118.5t6.5 108.5t15.5 53q21 17 440 24q251 4 366 5q76 0 92 -2q46 -6 75 -45q22 -36 22 -58q0 -3 -1 -6q-4 -23 -14 -59q-6 -21 -6 -39q0 -13 3 -24q1 -2 1 -5q1 -24 -45 -80q-50 -62 -143 -166t-150 -185q-42 -59 -84.5 -107 t-62.5 -68t-20 -25q0 -7 58 -7q23 0 55 1l114 4l14 118l122 18q81 12 114 12q17 0 22 -3q22 -13 36.5 -72t16.5 -136v-10q0 -86 -16 -130q-16 -46 -58 -66q-37 -17 -262 -28q-118 -6 -202 -6q-76 0 -125 5q-44 5 -85 8t-69 4.5t-54 2.5t-42 1.5t-30 2t-21.5 3.5t-13.5 6 t-8.5 10t-3.5 15q-3 24 -12.5 36t-16.5 15t-11 25q-2 9 -2 22q0 19 4 47q4 38 6.5 56t12 42.5t16 35t31 36t44.5 43t68 58.5q128 110 240.5 222.5t112.5 131.5q0 10 -10.5 10.5t-39.5 -5.5q-16 -2 -27 -4t-32 -5t-42 -5q-53 -6 -71 -14t-29 -31q-4 -8 -7 -13t-8.5 -9.5 t-9.5 -6.5t-13.5 -3.5t-17.5 -2t-25 -0.5t-31 0.5t-41 1.5t-50 1q-42 1 -63 2t-40 6.5t-24.5 11.5t-6.5 22z" />
<glyph unicode="[" />
<glyph unicode="\" horiz-adv-x="741" d="M22 1216q9 16 71.5 7.5t71.5 -27.5q19 -39 40.5 -71.5t35 -59t25.5 -73.5q9 -34 20.5 -57.5t29.5 -50.5t69 -119t119 -225q147 -289 161 -304q28 -32 44 -75.5t10 -67.5q-11 -44 -33 -51t-68 17q-35 18 -55.5 40.5t-49 73.5t-96.5 187l-134 268q-36 73 -59 106t-52 93 q-71 145 -112 207q-13 20 -29 95.5t-9 86.5z" />
<glyph unicode="]" />
<glyph unicode="a" horiz-adv-x="1732" d="M24 256q-3 5 -3 14q0 12 5 32q6 15 9.5 21.5t18 11.5t33 6t62.5 2q67 2 94.5 4t52 12t33.5 23t25 44q24 47 51.5 79.5t34.5 64.5t69 167t69 181q1 5 2 13q5 33 -5 39t-75 8q-19 1 -29 1q-30 1 -46 25t-20 54t-10 67.5t-16 55.5q-16 28 -16 57q0 18 15 24t70 9 q120 7 336 7h31q185 0 200 -5q18 -6 44 -60.5t45 -75.5q25 -27 73 -125.5t64 -156.5q15 -53 29 -87t29 -85q16 -55 57.5 -139t76.5 -136q26 -37 48 -49q21 -13 41 -9q5 1 13 1q20 -1 54 -7q47 -10 107 -38q16 -8 16 -74v-15q-2 -80 -21 -100q-16 -16 -221 -21l-206 -4 l-12 62q-10 49 -47.5 98t-37.5 77q-1 25 -10 31q-11 7 -58 7q-44 0 -118 -6q-36 -2 -89 -7q-133 -10 -172 -10h-6q-32 1 -61 -11.5t-29 -27.5q0 -8 -18.5 -37.5t-42 -68.5t-31.5 -64l-13 -40h-211q-142 0 -179 4t-50 21q-19 25 -19 59q0 26 -14 46.5t-22 30.5zM730 592 q4 -4 39 -4q40 0 122 6q97 7 138 6q24 0 29 -2q26 -9 26 20q0 33 -28 88l-105 207q-27 51 -36 57q-3 2 -7 2q-15 0 -42 -30q-34 -38 -62.5 -93t-28.5 -88q0 -22 -15 -62t-26 -70q-7 -18 -7 -28q0 -6 3 -9z" />
<glyph unicode="b" horiz-adv-x="1298" d="M21 1148v11q1 49 17 67q18 20 90 36q42 10 93 10t109 -4q46 -3 75 -3h13q142 1 246 3h38q80 0 144 -6q78 -6 128.5 -14.5t87 -27t58.5 -41.5t42 -59q19 -34 26 -70t9 -108q1 -32 1 -56q0 -39 -3 -55q-5 -25 -33 -61l-39 -51l43 -39q43 -40 77 -135t34 -177 q0 -86 -25 -173l-26 -89l-136 -16q-126 -15 -312 -17h-47q-143 0 -171 11q-24 10 -233.5 26.5t-226.5 30.5q-12 9 -15 41q-2 19 -2 56q0 25 1 58l4 138l61 4q60 4 67 11q19 19 35 251q8 119 8 187q0 64 -7 83t-44 22.5t-53 -13.5q-6 -6 -17 -6q-17 0 -46 12q-41 17 -55 49 t-16 114zM576 458v-6q0 -66 21 -73q10 -4 38 -4q49 0 151 12q160 19 185 36q29 19 31 57q0 3 1 7q0 34 -24 55q-24 22 -191 30q-75 3 -114 3q-20 -1 -30 -1q-30 -2 -45 -19q-22 -25 -23 -97zM582 898q1 -35 10 -43.5t53 -16.5t111 -8q30 0 65 2q99 6 128 26q20 14 20 43 q0 13 -4 30q-5 23 -7.5 45.5t-1 29.5t-8.5 13.5t-23 7t-51 0.5q-96 0 -180 -13q-77 -12 -95 -30q-17 -18 -17 -79v-7z" />
<glyph unicode="c" horiz-adv-x="1112" d="M20 684q0 53 28 147.5t65 167.5q26 52 98 120.5t129 95.5q21 10 46.5 23t35.5 18t27.5 12.5t22.5 6t19 -1.5q22 -7 48 8q14 9 59 9t101 -8.5t116.5 -32t97.5 -57.5q19 -17 37 -26t28.5 -12t28.5 -19.5t40 -50.5q32 -48 38.5 -76t6.5 -117v-58.5t-3.5 -42t-5 -32 t-14.5 -19.5t-20.5 -13t-33 -4.5t-43 -2.5t-59.5 2l-144 3l-14 103q-13 92 -25.5 116t-59.5 43q-33 13 -46.5 13t-34.5 -14q-58 -37 -107.5 -131.5t-59.5 -184.5q-2 -22 -2 -40q0 -20 2 -34q6 -28 30 -77q38 -78 82.5 -104t138.5 -26q95 0 132 24l127 84l39 -36 q38 -36 38 -53q0 -10 13 -25t24.5 -29.5t8.5 -49t-28 -82.5q-37 -69 -67 -90t-111 -33q-108 -16 -212 -16q-54 0 -106 4q-153 12 -179 53q-20 29 -45 29q-21 0 -106 123t-85 154q0 23 -23 42q-29 24 -51 83t-22 114z" />
<glyph unicode="d" horiz-adv-x="1415" d="M36 1204q-15 18 -15 30q0 15 25 20q15 3 40 3q15 0 34 -1q42 -2 62 -1t25 4.5t21 6.5q16 2 50 4q14 1 36 1q30 0 74 -1q149 -4 296 -4t201 -1.5t82 -9.5q43 -13 120.5 -66t97.5 -83q21 -31 43 -31q17 0 58 -36t41 -51q0 -11 19 -55l34 -82q14 -35 14 -160v-33 q-1 -134 -22 -202.5t-90 -168.5q-22 -31 -39.5 -59t-24 -40t-13 -21.5t-11.5 -11.5t-14 -2q-18 -1 -30.5 -8.5t-26 -17t-76 -20t-167.5 -16.5q-31 -2 -66 -4t-49.5 -2.5t-31.5 -1.5t-43.5 -1h-51h-87.5h-218h-4q-39 0 -113 17q-78 18 -96 32q-14 11 -14 91q0 19 1 41l4 118 l103 3q29 1 45 2t33.5 5t25 7t15.5 14t10 20.5t3.5 31t0.5 41t-3 54.5q-6 99 -14.5 179.5t-10.5 116.5l-3 62l-82 11q-83 11 -103 22q-16 8 -49 123.5t-46 130.5zM641 364l150 4q110 2 135.5 8t56.5 36q42 42 42 59q0 18 19 39q16 18 16 69q0 29 -5 69q-14 110 -50 170 q-34 58 -63.5 76t-132.5 44q-96 24 -109 24h-2q-3 -1 -11 -12q-6 -9 -10 -32.5t-7.5 -70t-6 -94l-7 -133t-9.5 -158.5z" />
<glyph unicode="e" horiz-adv-x="1097" d="M24 669q7 369 16.5 449.5t50.5 115.5q11 9 16 12.5t14 9t21 6.5q10 0 26 2q10 1 27 1h17q28 -1 59.5 -1t84.5 -2t110 -3.5t145 -3.5t180 -4q272 -6 280 -14t8 -80q0 -47 -4 -123q-8 -190 -22 -212q-10 -16 -10 -43q0 -19 -17 -23.5t-91 -7.5q-17 -1 -32 -1q-85 0 -124 19 l-48 23l10 85q9 79 9 108v13q-4 19 -37 28q-31 9 -153 9h-48q-164 -2 -163 -13q0 -6 5 -10.5t10 -10.5q6 -8 9 -32q2 -12 1.5 -30t-1.5 -41q-2 -34 -2 -55q-1 -18 1 -26q4 -18 24 -32q13 -12 38 -12q14 0 31 4q29 6 49 6q13 0 21 -3q35 -11 68 -11h42l1 -97q1 -45 4.5 -81.5 t6 -49t0.5 -23.5t-11 -24q-12 -16 -22.5 -17t-17.5 7t-17.5 11.5t-22.5 -3.5q-20 -12 -128 -19l-110 -7v-151l121 -9q60 -4 106.5 -4t78.5 4l66 9l1 63q2 65 12 80q12 20 46.5 30.5t48.5 -0.5q10 -9 51 -9q19 0 44 2t41 2q21 0 29 -3q14 -5 25 -32q14 -35 16 -195l2 -158 l-48 -3q-5 0 -86.5 -4t-142 -8.5t-68.5 -9.5t-103 -5q-54 0 -134 2q-224 4 -232 13q-8 8 -44 8q-35 0 -80 27q-44 28 -52 108q-4 44 -5 177q0 108 3 272z" />
<glyph unicode="f" horiz-adv-x="1032" d="M22 1077q0 30 6.5 48.5t30.5 46.5q5 6 8 9q35 42 50.5 49.5t52.5 1.5q21 -4 36 -4q23 0 33 9q21 17 99 21q63 3 233 3h91q311 -1 332 -18q9 -8 13 -24t4 -48t-1.5 -64t-5 -92.5t-4.5 -111.5l-2 -69l-69 -4q-20 -1 -38 -1q-42 0 -75 7q-45 9 -45 26q0 12 -9.5 21.5 t-20.5 31t-14 62.5q-3 47 -9 55t-36 6q-329 -20 -355 -34q-25 -13 -27 -102v-9q0 -80 24 -88q8 -3 24 -3q20 0 52 4q60 9 112 14q12 2 23 2q39 0 77 -14q45 -21 60.5 -53t9.5 -58.5t-12 -54t0 -37.5q7 -12 -9 -32q-17 -20 -129 -21q-160 -2 -183 -8.5t-28 -28.5 q-2 -5 -5 -31q-2 -12 -2 -29q0 -48 14 -131q17 -112 17 -129q0 -34 -47 -72t-89 -38q-41 0 -50 -14q-3 -5 -10 -5q-13 0 -39 16q-41 23 -55 49q-16 29 -16 178q0 13 1 27q1 173 19 184q3 2 4 4.5t2 8t0.5 12.5t-1.5 19.5t-2.5 27t-3.5 37t-4.5 46.5t-5.5 59.5t-6 72.5 q-5 61 -12 149q-8 91 -8 121z" />
<glyph unicode="g" horiz-adv-x="1185" d="M20 711v11q0 119 21 180q22 63 106 182q33 47 60 70.5t43 27t40 11.5t47 25q28 20 74 22q36 1 94 20q44 13 70 13q8 0 15 -1q35 -7 71 -7q3 0 5 1q40 0 144 8q57 5 85 5q14 0 21 -1q20 -4 47 -33q14 -15 22 -29.5t14 -42t8 -48t7.5 -75t10.5 -95.5q2 -17 2 -30 q0 -41 -18 -49q-11 -4 -47 -4q-41 0 -115 6l-140 11l-5 55q-5 53 -20.5 71.5t-55.5 16.5q-24 -1 -44 3t-29 5t-30 -9t-58 -37q-101 -74 -125.5 -98.5t-31.5 -58.5q-6 -28 -17 -47t-15 -40q-1 -10 -1 -26q0 -18 2 -44q5 -60 17.5 -108t28 -80t39 -56.5t44.5 -38t52 -24.5 t54 -15.5t58 -11.5t57 -13q21 -5 47 -5q23 0 51 4q59 9 79 29q19 19 23 61q3 31 -7.5 37t-74.5 12q-84 9 -104 25q-15 13 -28.5 80.5t-21.5 77.5q-14 17 -4.5 55.5t31.5 49.5q12 7 58 7t126 -7q158 -13 190 -30q23 -13 51 -15t46.5 -7t29.5 -26q9 -18 21 -34t15.5 -22.5 t7.5 -35.5q3 -23 3 -58v-19q-1 -47 -4 -141q-1 -34 -3 -91q-4 -162 -14 -190q-8 -25 -35 -28q-8 0 -28 -1h-27q-22 -1 -41 -1q-63 0 -98 10q-46 13 -63 48q-18 38 -35 24q-20 -16 -152 -28q-84 -9 -143 -9q-33 0 -58 3q-67 7 -97.5 22t-123.5 90q-62 50 -125.5 135.5 t-79.5 140.5q-19 66 -19 215z" />
<glyph unicode="h" horiz-adv-x="1531" d="M20 353l88 3q89 4 99 14q8 8 23.5 134.5t19.5 251.5q1 21 1 41q0 94 -18 142q-12 22 -35 23h-3q-25 0 -106 -14q-21 -4 -30.5 29.5t-25.5 174.5q-3 30 -3 47q0 13 2 17q4 12 32 28q30 15 58 15q11 0 22 -2q30 -7 58 -7t155 9q40 4 72 4q25 -1 44 -3q44 -6 65.5 -21 t42.5 -54q16 -30 21 -71.5t7 -155.5l3 -179l68 3q12 1 26 1q61 0 158 -11q57 -7 89 -7q20 0 29 3q33 9 42 61q7 38 10 196l4 222l171 -5q170 -4 193 -24q12 -11 23 -11t18 5.5t19 4.5t26 -14t19 -39.5t5 -90.5q0 -34 -1 -52.5t-6 -36t-11 -25t-22 -15t-33.5 -11t-49.5 -7.5 l-63 -9l-8 -261q-3 -99 -3 -163q0 -104 8 -115q10 -13 42 -16t59 -9t31 -27q4 -22 16 -38q13 -18 17 -30q2 -6 2 -21q0 -18 -3 -48q-7 -45 -15 -58t-34 -20q-30 -8 -42 -4.5t-22 2.5t-24 -14q-18 -16 -73 -16q-30 0 -71 5q-116 13 -168 47q-9 6 -13 9.5t-8.5 8.5t-6.5 15 l-4 20t-2 32.5t-0.5 43t-0.5 60.5q0 166 -17 171q-17 6 -192 11q-43 2 -60 3t-46 -1t-38 -1.5t-26.5 -8t-20.5 -11.5t-12 -20.5t-9 -25.5t-3 -37.5t-2 -46t0 -59.5q0 -48 -0.5 -72.5t-4.5 -49t-9 -34.5t-18.5 -22t-28 -17t-41.5 -14q-44 -14 -151 -14q-38 -1 -82 1 q-174 6 -195 29q-23 23 -24 137z" />
<glyph unicode="i" horiz-adv-x="829" d="M24 270q10 38 31 49q24 13 148 22q81 6 104 12.5t28 24.5q6 14 6 186q-1 54 -1 122q-2 290 -20 308t-119 20q-88 2 -110 11t-22 43q0 31 -14 41q-11 6 -15 78q-1 19 0 33q0 41 7 49q3 2 104 2q63 0 164 -1q263 -2 361 -7q52 -4 64 -16q13 -14 18 -131l5 -117l-165 -13 l-9 -193q-2 -33 -4 -92q-10 -221 -10 -297q0 -27 1 -35q3 -18 15 -19h6q5 -1 8 -1q26 -3 54 -12.5t69 -10.5q36 -1 44.5 -12t23.5 -74q13 -57 13 -76t-21 -48q-12 -16 -32 -29t-36 -16q-33 -6 -176 -6q-64 0 -150 1q-208 2 -252 7t-68 27q-33 31 -33 67q0 35 -13 50 q-8 8 -8 24q0 13 4 29z" />
<glyph unicode="j" horiz-adv-x="1216" d="M24 360q-4 20 -4 45t4 55q9 64 54 86q41 21 142 21h18q117 -2 163 -12q35 -8 42.5 -20t13.5 -69q8 -71 26.5 -95.5t64.5 -24.5q67 0 112.5 52t61.5 145q9 53 9 196v30q-1 168 -11 196q-9 24 -26.5 29t-94.5 7q-134 2 -156 10q-19 6 -31 30q-2 3 -5 9q-17 32 -17 92 q0 67 19 84q14 14 207 24q175 10 312 10h26q119 -1 151.5 -5.5t52.5 -24.5q29 -29 36 -102q2 -17 2 -33q0 -49 -17 -81q-14 -27 -31 -34t-76 -10q-87 -6 -97 -16t-16 -104.5t-11 -208t-31.5 -235.5t-71.5 -179q-30 -37 -48 -58.5t-39 -39.5t-31.5 -25t-35 -14.5t-38.5 -9 t-53.5 -6.5t-70.5 -10q-17 -2 -32 -2q-21 0 -39 4q-32 9 -55 21t-38 12q-8 0 -34 25.5t-55 61.5q-73 90 -103.5 111.5t-81.5 21.5q-41 0 -51 6t-16 35z" />
<glyph unicode="k" horiz-adv-x="1454" d="M23 222q-3 25 -3 43q0 39 12 46q11 7 117 10.5t112 12.5q8 14 8 206q-1 48 -1 108q-2 296 -13 307q-5 5 -38 12t-70 10l-93 9l-11 81q-5 40 -5 61q0 10 1 16q4 16 38 48l46 44l390 -13l-5 -43q-2 -19 -7 -44.5t-8 -40t-2 -29.5t8 -22q15 -15 15 -143t13 -135q7 -4 36 25 t78 85.5t69 78.5q52 54 52 64q0 6 26 26.5t55.5 45.5t36.5 40q12 26 81 73l69 47l176 -5q103 -3 144.5 -9t56.5 -21t15 -52t-26 -101.5t-49 -83.5q-13 -11 -118.5 -26.5t-197.5 -19.5q-18 -1 -30.5 -8.5t-19.5 -17.5t-24.5 -36t-34.5 -48q-31 -40 -31 -70q0 -7 1 -13 q8 -34 78 -119q62 -76 83.5 -106.5t67.5 -110.5q43 -73 59 -79q10 -3 120.5 -10t122.5 -19q11 -11 11 -79q0 -19 -1 -43l-5 -108l-144 3q-146 4 -199 30q-54 26 -139 107.5t-136 157.5q-56 82 -94 109l-38 27l-68 -70q-68 -70 -82 -70t-29.5 -42.5t-25.5 -108.5 q-13 -86 -17 -96q-10 -27 -45 -33q-17 -3 -147 -6l-185 -4l-26 39q-22 34 -30 113z" />
<glyph unicode="l" horiz-adv-x="1187" d="M21 1186q-2 5 -2 10q1 10 9 19q12 13 44 30q15 8 27 11t37 3t48.5 -2t84.5 -6.5t122 -7.5l179 -10l25 -52q21 -44 21 -124q0 -13 -1 -28l-4 -98l-51 -1q-51 0 -66 -15q-6 -6 -6 -62q0 -72 10 -226l17 -274l87 -8q44 -4 85 -4.5t79 4.5l77 8l19 66q18 65 50 78q19 7 83 8 h16q54 0 91 -6q4 -1 12.5 -9.5t22 -30t21.5 -57t10 -88.5q0 -8 1 -17q0 -48 -12 -109l-10 -55h-82q-83 0 -101 -11q-15 -10 -244 -30q-169 -14 -223 -14q-20 0 -25 2q-23 8 -110 16l-95 10l-2 323q-1 274 -7.5 385t-20.5 125q-13 13 -74 15q-60 1 -77.5 17t-17.5 68 q0 37 -10.5 68.5t-21 47t-15.5 31.5z" />
<glyph unicode="m" horiz-adv-x="1671" d="M22 212q-1 18 -1 33q-1 27 3 41q6 22 30 54q25 32 42.5 40t65.5 8q37 0 54.5 1.5t31.5 11.5t16 23q2 14 4 46q1 19 1 38q-1 15 -1 30q-1 14 0 31q0 30 2 72q2 67 9 138q6 61 6 98q1 27 -3 41q-8 32 -41 33q-16 0 -65 33.5t-62 38.5q-12 5 -16 25q-4 16 -4 50v17 q1 51 8 74t27 44q27 29 78 31h8q60 0 282 -19q36 -3 61 -3q44 0 56 9q17 14 56 5t47 -29q5 -14 44.5 -76.5t62.5 -121.5q25 -64 46 -64q11 0 21 18l6 14q13 34 92 145q22 31 36 49.5t31.5 36t27 25t30.5 13.5q21 8 34 8h11q13 0 33 -1q30 -1 53.5 -4t71 -7.5t89.5 -7.5 q168 -12 193 -35q25 -22 42 -132q7 -47 9 -71v-14q0 -16 -2 -30q-4 -20 -19 -27t-35.5 -10.5t-58.5 -3.5h-80l-9 -62q-3 -27 -3 -50q0 -19 2 -37q5 -38 10 -67.5t2 -35.5q-6 -11 -15 -153q-3 -51 -3 -86q0 -62 10 -73q18 -10 87 -19l70 -8l4 -90q1 -12 1 -23q0 -71 -23 -107 l-24 -40l-145 3q-118 3 -159 19.5t-83 77.5q-19 28 -24 58.5t-5 118.5v39q0 205 -10 229q-8 20 -32 -22q-9 -15 -24 -45q-31 -61 -63 -88.5t-46 -55.5q-17 -32 -29 -36q-5 -2 -16 -1q-18 0 -54 4q-44 5 -72 18t-48.5 39.5t-34.5 54t-41.5 78.5t-58.5 96q-14 21 -24.5 40.5 t-15.5 30.5t-9 19.5t-7.5 11.5t-9.5 3q-9 0 -9 -26q0 -2 1 -5q0 -28 4 -96q3 -40 4.5 -65.5t4 -76.5t4.5 -102q5 -111 5 -160q0 -21 -1 -30q-3 -31 -28 -53q-44 -41 -140 -49q-25 -2 -57 -2q-88 0 -226 16l-89 10z" />
<glyph unicode="n" horiz-adv-x="1560" d="M20 212q0 108 20 116q20 7 121 8l100 4l5 151q2 49 2 97q0 101 -8 196q-10 141 -27 163q-18 23 -83 31q-45 5 -57.5 14t-24.5 43q-17 50 -22 117l-5 67l55 10q28 5 98 9q35 2 70.5 2t71.5 -2q72 -4 83 -19q16 -20 36 -20q8 0 12.5 -4.5t12.5 -17.5t19.5 -30.5t39.5 -50 t66 -70.5q82 -81 243.5 -275t161.5 -211q0 -15 12 -15q8 1 8 129q0 10 1 19q0 119 -6 249q-6 140 -15 167q-13 42 -13 66q-1 8 1 14q6 24 42 57q40 35 58 35q3 0 6 -1q17 -7 199 -14q99 -4 140.5 -10t60 -19t30.5 -43q7 -18 7 -62q0 -33 -4 -80q-9 -110 -24 -115 q-30 -9 -64.5 -14t-49.5 -7.5t-28.5 -13.5t-19.5 -34q-5 -17 -4 -66q-1 -65 7 -187q14 -214 29 -231q14 -18 59 -18q59 0 74 -26q13 -23 13 -103v-22l-3 -117l-83 -9q-72 -8 -191 -10h-22q-56 1 -77 5q-25 6 -57 29q-46 35 -93 108q-54 83 -217 267t-182 214q-9 14 -19 24.5 t-15 10.5q-8 1 -10 -35q-1 -16 0 -33q0 -20 1 -42q3 -39 10 -48q4 -6 4 -32q0 -35 -7 -105l-20 -195q-7 -71 -42 -109q-25 -28 -47 -32q-8 -1 -27 -1q-32 0 -93 4q-28 3 -52 3q-15 0 -28 -1q-36 -3 -65 -3t-52 -5t-41 -4.5t-31 -1t-22 4.5t-14.5 13t-8.5 24.5t-4 38t-1 54.5 z" />
<glyph unicode="o" horiz-adv-x="1294" d="M21 656v21q1 54 9 84q10 36 62 141q43 87 74 131.5t75 85.5q72 65 122 86.5t157 32.5q125 13 184 13q47 0 52 -8q6 -10 50 -23t108 -40.5t111 -69.5q59 -53 112.5 -110.5t53.5 -68.5t17 -42.5t37 -93t25 -142.5q2 -40 2 -67q0 -30 -2 -46q-6 -30 -39 -95 q-52 -103 -88 -150.5t-100 -99.5q-62 -50 -155 -87t-156 -37q-52 0 -209.5 30t-193.5 47q-42 20 -57 20q-29 0 -92 72t-95 141q-40 86 -51 133.5t-13 141.5zM380 181q0 -13 14 -13t14 13q0 14 -14 14t-14 -14zM391 630q10 -16 14 -94q3 -53 56.5 -97t125.5 -63 q36 -10 76 -10q38 0 79 10q83 18 138 79q24 27 36 125q5 43 5 77q0 43 -8 73q-11 40 -70.5 102t-102.5 79q-26 11 -51 13q-7 1 -14 0q-17 0 -32 -4q-21 -6 -36.5 -13t-34 -17.5t-27.5 -14.5q-75 -32 -99 -56.5t-41 -88.5q-17 -61 -16 -86q-1 -10 2 -14z" />
<glyph unicode="p" horiz-adv-x="1175" d="M20 1098q0 74 6 91t39 37q31 19 59 21t43 -3t42 8q15 8 70 8q136 0 518 -47q57 -7 79.5 -10t54 -10t40.5 -11t29 -18t30 -25t34 -38q66 -74 80 -133q10 -39 10 -117q0 -44 -3 -99q-5 -96 -15 -129q-25 -80 -128 -137q-16 -9 -34 -18q-60 -29 -101 -36.5t-154 -10.5 q-167 -5 -179 -17q-13 -13 -14 -78q-1 -9 -1 -18q0 -59 9 -131l12 -92l-40 -15q-18 -7 -62 -7q-65 0 -189 16q-206 27 -222 43q-9 9 -9 41q0 25 5 62l12 87l70 9h1h1h1l1 1h2q64 8 77 19q14 12 14 56v16q-1 15 -3 52q-12 148 -12 277q0 56 -1 88t-5 60.5t-9.5 40.5t-17.5 21 t-26 11t-38 2q-48 0 -62 24t-14 109zM540 811l10 -100l100 -5q23 -1 41 -1q39 0 53 5q22 6 66 42q40 33 50 50q7 14 7 42v12q-4 54 -16 66q-8 8 -43.5 13t-97.5 11.5t-101 12.5q-11 2 -21 2q-34 0 -44 -23q-8 -16 -8 -56q0 -29 4 -71z" />
<glyph unicode="q" horiz-adv-x="1409" d="M21 672q1 145 16 210q10 45 27 73t55.5 70.5t60.5 71.5q36 47 52 47q13 0 24.5 10.5t24 24.5t48.5 31.5t90 29.5q44 10 224 12h35q84 0 118 -4q41 -5 76 -22q41 -21 125 -109.5t101 -128.5q9 -21 25.5 -49.5t31 -51.5t31 -56t24.5 -62.5t12 -70.5q1 -12 1 -24 q0 -29 -7 -58q-9 -47 -22.5 -86.5t-26 -62t-23 -41t-16.5 -29t-5.5 -21t9.5 -21.5q15 -18 69.5 -35.5t124.5 -26.5l62 -8v-207l-48 -2q-105 -8 -136 -11l-87 -9l-80 77q-32 31 -63.5 53.5t-40.5 22.5q-14 0 -36.5 -13t-51.5 -28.5t-102 -28.5t-176 -13q-74 0 -117.5 10 t-93 32.5t-88.5 34.5q-52 15 -93.5 49.5t-64 71t-37.5 74.5t-20 58t-5 24q0 28 -14 38q-13 8 -13 135v19zM303 701q0 -21 11 -73q17 -82 52.5 -144t67.5 -66q13 -1 30.5 -12.5t29.5 -25.5q19 -23 35 -27q6 -2 18 -2q18 0 48 4q75 10 110 40q27 24 25 38t-40 83q-2 5 -4 8 q-31 55 -31.5 75.5t27.5 54.5q28 36 65 36q38 0 85 -40q63 -52 94 -52q8 0 14 4q10 6 10 23q0 28 -28 83q-36 72 -36 95q0 18 -13.5 31.5t-13.5 32.5q0 10 -13.5 30t-32.5 38q-40 39 -95 47q-18 3 -42 3q-51 0 -129 -12q-48 -7 -70 -12.5t-40.5 -23t-26.5 -34.5t-35 -65 t-59 -97q-13 -19 -13 -40z" />
<glyph unicode="r" horiz-adv-x="1474" d="M26 258q14 54 57 98q24 26 43 34t33.5 4t37 -4t52.5 11l40 15l-11 93q-7 55 -7 126t3.5 157t3.5 111v69l-75 4q-69 4 -90 19t-12 55q2 9 2 19q0 29 -16 69q-18 47 -18 60q1 32 135 52q124 18 239 21q58 2 92.5 1.5t45.5 -1.5q26 -4 220 -9q184 -5 272.5 -29.5 t162.5 -89.5q49 -44 60.5 -65.5t16.5 -82.5q2 -23 2 -48q0 -67 -14 -145q-19 -107 -49 -146q-29 -39 -93 -88l-63 -47l56 -47q40 -34 62 -66.5t27.5 -49t24.5 -29t61 -17.5q89 -11 108 -28.5t19 -85.5q0 -79 -17 -96t-190 -17h-102t-52.5 5.5t-33.5 11t-25 23.5 q-48 48 -103 124l-167 222l-156 -8l-10 -137q-4 -62 -8 -95.5t-13.5 -63.5t-20 -41.5t-34.5 -19t-50 -6.5t-73 5q-73 7 -138 10t-96.5 4t-58 1.5t-37.5 5.5t-19 13t-18 27q-12 22 -12 49q0 21 6 43zM619 848l3 -124l82 -11q31 -5 65 -5q41 0 86 7q83 12 100 34q13 16 31 62 q11 27 11 40q0 14 -22 36q-30 30 -30 53t-18 37q-17 15 -159 19q-35 1 -62 1q-82 0 -85 -11q-3 -14 -3 -64q0 -30 1 -74z" />
<glyph unicode="s" horiz-adv-x="1134" d="M21 410v41t3.5 30.5t7.5 22.5t16.5 14.5t24 9t37 3t49 -0.5t65.5 -3l158 -9l12 -41q10 -35 20 -58.5t24.5 -39t24 -23t32 -20.5t35.5 -22q37 -21 58.5 -16.5t44 12.5t34.5 0q20 -13 50 26.5t30 78.5q0 43 -20 69t-59.5 40t-83.5 24.5t-106.5 34t-114.5 58.5 q-100 67 -134.5 108.5t-47.5 113.5q-7 36 -7 70q0 95 56 163q74 92 269 158q45 15 71.5 21.5t77.5 10.5q12 1 25 2q40 0 85 -12q59 -14 129 -46q42 -20 63 -30.5t42 -26t28.5 -26t14 -33.5t7 -43.5t0.5 -61.5q0 -35 0.5 -47t-1.5 -36t-2 -30t-6 -20.5t-7.5 -16t-13.5 -8.5 t-17 -6.5t-24.5 -1.5t-29.5 -1t-39 2l-120 4l-12 51q-12 50 -38.5 70t-86.5 25l-69 5l-77 -144l72 -33q51 -23 121 -42.5t123.5 -32.5t106 -32t87.5 -52t49 -82q16 -58 31 -75q18 -22 23 -82q1 -17 1 -32q0 -40 -9 -74q-16 -59 -81 -125.5t-107 -66.5q-30 0 -53.5 -7 t-43 -15.5t-82.5 -15t-162 -6.5q-90 0 -156.5 8.5t-102.5 22.5t-60.5 30t-37.5 32.5t-25 30t-31 22t-49 8.5q-37 0 -49 7.5t-24 37.5q-17 43 -19 129z" />
<glyph unicode="t" horiz-adv-x="1193" d="M20 994v22q0 119 10 183l10 61l89 8q113 10 346 10q11 0 22 1q213 0 246 -10q24 -7 56 -7q15 0 33 2q54 5 88 8h8q32 0 79 -21q29 -16 46 -16q10 0 17 5q23 19 49 -1.5t33 -63.5q9 -52 18 -199q3 -46 3 -79q0 -67 -11 -84q-15 -24 -102 -24h-7h-17q-79 0 -106 -17 q-34 -22 -49.5 2.5t-22.5 110.5l-7 101l-62 -5q-61 -5 -72 -11q-6 -3 -8.5 -65t-5.5 -150.5t-8 -133.5q-6 -50 -6 -100q0 -36 3 -72q5 -56 11.5 -70t28.5 -17q38 -6 66.5 -37.5t41 -70.5t12.5 -77t-14 -57q-14 -18 -28 -20h-3q-16 0 -64 12q-45 11 -65 11.5t-32 -10.5 q-23 -19 -230 -20h-20q-188 0 -203 18q-18 22 -34 74.5t-16 89.5q0 41 27 56t127 32q101 17 115 27q10 8 10 281.5t-10 303.5q-5 17 -54 17q-35 0 -42.5 -9.5t-14.5 -58.5q-9 -68 -26 -81q-14 -13 -118 -19q-23 -1 -42 -1q-67 0 -83 18q-11 17 -12 153z" />
<glyph unicode="u" horiz-adv-x="1585" d="M20 1144q0 15 10 36q11 26 24 30t60 -2q40 -5 55 -2.5t21 8.5q5 6 43 8q13 1 31 0q36 0 92 -3q175 -11 235 -39q51 -24 51 -78q0 -9 -1 -18q-1 -8 -1 -20q0 -46 18 -158q23 -140 25 -175q4 -61 22 -177q16 -108 41 -137t101 -29q82 0 122.5 18.5t71.5 70.5q26 43 30 83 q2 20 2 75t-2 146q-2 86 -5.5 156t-6 104t-5 59.5t-1.5 37t4 21t12 26.5l24 45l207 -8q159 -6 195 -16q43 -12 55 -50q8 -27 11 -129l3 -138h-94q-55 0 -77.5 -5t-33.5 -19q-16 -23 -18 -264t-16 -267q-29 -57 -36 -73.5t-7 -28.5q0 -15 -48 -56t-96 -67q-28 -16 -158 -33.5 t-213 -17.5q-40 0 -103.5 34t-89.5 34q-14 0 -39 11t-44 27q-92 72 -139.5 209.5t-57.5 357.5l-8 186l-83 -5q-21 -1 -36 -1q-26 0 -38 3q-19 5 -40 27q-26 27 -37 85.5t-21 79.5q-11 23 -11 38z" />
<glyph unicode="v" horiz-adv-x="1695" d="M31 1141q-11 34 -11 57q0 46 44 48q5 0 10 -2q6 -1 12 -1q31 0 69 17q40 18 63 18h2q20 0 36 -9t69.5 -19.5t133.5 -11.5q114 -2 132 -16q17 -14 58.5 -103t56.5 -146q11 -39 59.5 -168.5t80.5 -201.5q16 -37 31 -37q13 0 63 98t67 157q19 65 70 178.5t58 144.5 q6 30 35 77q18 29 36.5 38t70.5 16q29 4 66 4q107 0 275 -35q40 -9 48 -19q9 -11 9 -66q1 -55 -21 -101q-22 -48 -54 -54q-10 -1 -16.5 -11t-6.5 -21q0 -19 -17 -24t-86 -8q-101 -4 -120 -19q-23 -20 -71.5 -112t-71.5 -162q-36 -107 -87.5 -203t-90 -157t-46.5 -86 q-11 -38 -43.5 -55.5t-103.5 -22.5q-24 -2 -44 -2q-92 0 -92 38q0 19 -40 68q-32 39 -57.5 101t-41.5 121.5t-43.5 144t-57.5 151.5q-11 25 -27 62.5t-21.5 50.5t-17.5 34t-19.5 27t-23.5 15.5t-33.5 13t-45.5 6.5q-39 5 -69 5.5t-41 0t-19 -2t-11.5 4.5t-8 13t-19.5 29.5 t-36 49.5q-22 28 -41 87z" />
<glyph unicode="w" horiz-adv-x="1892" d="M20 1080v158l45 6q9 3 26 3q15 -1 37 -3q46 -4 86 -4q47 0 62.5 -8t38.5 -44q28 -44 71 -168t75 -183q13 -24 13 -65q0 -37 16 -73t32 -36q10 0 24.5 26t34 66.5t31.5 58.5q13 20 68 157.5t55 143.5q1 3 3 7.5t12.5 16.5t25.5 21.5t44.5 17t67.5 7.5q49 0 74.5 -5 t45 -14.5t31.5 -13.5q15 -5 41 -67.5t26 -94.5q0 -11 42.5 -103.5t48.5 -123.5q6 -35 16.5 -51t23 -10.5t24.5 32.5q22 52 64 198.5t42 209.5q0 44 15 58.5t33.5 8t44.5 -14.5t40 -4q26 7 186 11q27 1 50 1q98 0 120 -11q14 -7 13 -26q0 -18 -12 -48q-22 -54 -22 -94 q0 -32 -20.5 -66t-20.5 -50q-1 -14 -16.5 -19.5t-62.5 -7.5l-79 -4l-77 -231q-77 -230 -93 -246q-23 -23 -14 -38t45 -15q51 0 65 -26q9 -17 9 -62q0 -23 -2 -52q-7 -97 -20 -110q-12 -12 -221 -16l-209 -4l-22 41q-17 33 -42 113.5t-38 109.5q-22 50 -62.5 173t-40.5 141 q0 22 -14 22t-14 -13q0 -9 -41 -60t-41 -63q0 -15 -32 -66q-29 -47 -81 -168.5t-52 -141.5q0 -19 -31 -46q-20 -18 -46 -22q-18 -3 -57 -3q-17 0 -38 1q-188 6 -261.5 18t-99.5 41q-20 21 -25 41q-4 14 -4 43q0 12 1 26l4 77l88 2q89 4 102 17q3 3 3 10q0 16 -15 53 q-22 53 -48.5 110t-26.5 69q0 27 -58.5 154t-78.5 143q-19 15 -23.5 45t-4.5 137z" />
<glyph unicode="x" horiz-adv-x="1433" d="M20 1172q0 14 10 20q11 8 27 12t48 8q107 12 191 12q97 0 162 -16q122 -30 170 -126q22 -45 75 -115l55 -74l33 40q25 31 33 51t45 67q44 57 59 106l14 48l104 -2q71 -2 107 -2.5t78 -5t59 -7t37 -13.5t24.5 -19.5t9.5 -30t4 -39t-4 -52.5l-8 -103l-266 -9l-84 -104 q-66 -83 -81 -135q-5 -17 -5 -32q0 -32 22 -56q14 -16 55.5 -91.5t68.5 -109.5l33 -41h312l5 -106q1 -30 1 -48t-0.5 -37.5t-5 -30l-9 -21t-15.5 -15.5t-21.5 -10t-31 -6.5t-39.5 -2.5t-51 -2h-24q-87 0 -148 12q-69 14 -150 56q-37 19 -67 58.5t-90 151.5q-26 49 -34 54 t-29 -14q-16 -15 -93.5 -126.5t-98.5 -118.5q-27 -9 -70 -45q-32 -27 -60 -32q-23 -4 -100 -4h-33q-44 0 -64.5 0.5t-47 4t-35.5 5.5t-21.5 13t-14 18.5t-4.5 29.5t-1.5 38.5t3.5 52.5q3 49 10 90.5t14 49.5q16 20 124 20h109l81 86q166 177 166 198q0 13 -83 139l-83 126 l-137 -1h-29q-109 0 -126 14q-20 16 -57 119q-14 40 -20 61q-8 27 -8 42z" />
<glyph unicode="y" horiz-adv-x="1421" d="M22 1140q4 19 20 28q26 15 190 24l165 9l69 -54q28 -22 53 -36.5t31 -12.5q3 1 5 1q36 0 82 -148q22 -73 58 -139.5t53 -66.5q9 0 83 131t95 182q11 28 28.5 45t29 27.5t11.5 26.5q0 25 30 48q30 21 107 21q61 0 151 -13q34 -5 51.5 -8.5t33.5 -11.5t21.5 -16t9.5 -27 q3 -14 3 -28v-11q-2 -20 -5 -57l-10 -110l-100 -9q-105 -10 -117 -15q-10 -4 -28 -36t-44 -77.5t-48 -71.5q-26 -31 -48 -75.5t-69 -100.5q-40 -47 -50.5 -72t-13.5 -79l-4 -82l151 -14l9 -80q2 -21 2 -41q0 -34 -6 -69q-10 -54 -30 -73q-6 -6 -92.5 -6t-370.5 5l-131 3 l-8 110q-3 40 -3 69q0 45 8 62q12 27 67 27q70 0 89 20t19 95q0 63 -7.5 83.5t-44.5 57.5q-41 42 -84.5 107t-75.5 106l-48 60l-254 28l-13 48q-14 54 -19 139q-2 31 -2 51q0 17 1 26z" />
<glyph unicode="z" horiz-adv-x="1105" d="M19 828q1 10 5 28q4 20 9.5 46t11.5 72.5t9 100.5l8 130l110 8q95 6 469 11q104 1 174 0q107 0 139 -2q54 -3 71 -23q10 -10 15 -22.5t6.5 -32t1.5 -33t-1.5 -43.5t-1.5 -47q-1 -36 -11.5 -59.5t-41.5 -59.5q-96 -109 -148.5 -175t-63 -85t-41 -57t-91.5 -103 q-112 -119 -112 -125q0 -4 46 -4q26 0 68 1l113 3l14 120l75 9q91 11 133 11q2 -1 4 -1q42 0 53.5 -8.5t21.5 -32.5q2 -5 3 -8q19 -45 19 -137q0 -20 -1 -42q-5 -124 -31 -153q-36 -39 -132 -55q-91 -15 -274 -14h-24q-144 0 -236.5 6.5t-148 14.5t-81.5 9q-35 1 -45 7 t-10 26q0 30 -27 50q-18 14 -20 33q0 2 -1 5q0 23 10 89q13 88 39 123.5t123 97.5q57 37 210.5 192.5t153.5 176.5q0 11 -6 14t-21.5 1.5t-41.5 -5.5q-57 -10 -99 -15q-41 -5 -59 -14.5t-17.5 -18.5t-3 -24t-17.5 -26q-9 -7 -56 -7q-36 0 -94 4q-134 10 -150 25q-7 6 -7 18z " />
<glyph unicode="{" />
<glyph unicode="|" />
<glyph unicode="}" />
<glyph unicode="~" />
<glyph unicode="&#xa2;" />
<glyph unicode="&#xa3;" />
<glyph unicode="&#xa7;" />
<glyph unicode="&#xab;" />
<glyph unicode="&#xad;" horiz-adv-x="417" d="M20 508q2 31 23 43t129.5 13.5t170.5 -9.5l55 -9v-138l-173 -1q-129 -1 -153 3.5t-36 29.5q-18 37 -16 68z" />
<glyph unicode="&#xbb;" />
<glyph unicode="&#xbf;" />
<glyph unicode="&#xc0;" />
<glyph unicode="&#xc1;" />
<glyph unicode="&#xc2;" />
<glyph unicode="&#xc4;" />
<glyph unicode="&#xc7;" />
<glyph unicode="&#xc8;" />
<glyph unicode="&#xc9;" />
<glyph unicode="&#xca;" />
<glyph unicode="&#xcb;" />
<glyph unicode="&#xce;" />
<glyph unicode="&#xcf;" />
<glyph unicode="&#xd1;" />
<glyph unicode="&#xd3;" />
<glyph unicode="&#xd4;" />
<glyph unicode="&#xd6;" />
<glyph unicode="&#xd9;" />
<glyph unicode="&#xda;" />
<glyph unicode="&#xdb;" />
<glyph unicode="&#xdc;" />
<glyph unicode="&#xdf;" />
<glyph unicode="&#xe0;" />
<glyph unicode="&#xe1;" />
<glyph unicode="&#xe2;" />
<glyph unicode="&#xe4;" />
<glyph unicode="&#xe7;" />
<glyph unicode="&#xe8;" />
<glyph unicode="&#xe9;" />
<glyph unicode="&#xea;" />
<glyph unicode="&#xeb;" />
<glyph unicode="&#xee;" />
<glyph unicode="&#xef;" />
<glyph unicode="&#xf3;" />
<glyph unicode="&#xf4;" />
<glyph unicode="&#xf6;" />
<glyph unicode="&#xf9;" />
<glyph unicode="&#xfa;" />
<glyph unicode="&#xfb;" />
<glyph unicode="&#xfc;" />
<glyph unicode="&#x2000;" horiz-adv-x="682" />
<glyph unicode="&#x2001;" horiz-adv-x="1365" />
<glyph unicode="&#x2002;" horiz-adv-x="682" />
<glyph unicode="&#x2003;" horiz-adv-x="1365" />
<glyph unicode="&#x2004;" horiz-adv-x="455" />
<glyph unicode="&#x2005;" horiz-adv-x="341" />
<glyph unicode="&#x2006;" horiz-adv-x="227" />
<glyph unicode="&#x2007;" horiz-adv-x="227" />
<glyph unicode="&#x2008;" horiz-adv-x="170" />
<glyph unicode="&#x2009;" horiz-adv-x="273" />
<glyph unicode="&#x200a;" horiz-adv-x="75" />
<glyph unicode="&#x2010;" horiz-adv-x="417" d="M20 508q2 31 23 43t129.5 13.5t170.5 -9.5l55 -9v-138l-173 -1q-129 -1 -153 3.5t-36 29.5q-18 37 -16 68z" />
<glyph unicode="&#x2011;" horiz-adv-x="417" d="M20 508q2 31 23 43t129.5 13.5t170.5 -9.5l55 -9v-138l-173 -1q-129 -1 -153 3.5t-36 29.5q-18 37 -16 68z" />
<glyph unicode="&#x2012;" horiz-adv-x="417" d="M20 508q2 31 23 43t129.5 13.5t170.5 -9.5l55 -9v-138l-173 -1q-129 -1 -153 3.5t-36 29.5q-18 37 -16 68z" />
<glyph unicode="&#x2013;" horiz-adv-x="1062" d="M19.5 508q5.5 31 62.5 43t350.5 13.5t461.5 -9.5l149 -9v-138l-468 -1q-350 -1 -415 3.5t-97 29.5q-49 37 -43.5 68z" />
<glyph unicode="&#x2014;" horiz-adv-x="2086" d="M20 508q11 31 124.5 43t701 13.5t923.5 -9.5l298 -9v-138l-937 -1q-698 -1 -828 3.5t-195 29.5q-98 37 -87 68z" />
<glyph unicode="&#x201c;" horiz-adv-x="567" d="M25 966q-12 64 7 115t74 101q62 58 74 58q7 0 9 -10t-2 -22t-12 -17q-16 -10 -41.5 -72t-18.5 -73q7 -12 25 -12q33 0 57 -53.5t5 -87.5q-13 -24 -73 -24q-52 0 -72.5 19t-31.5 78zM341 994q0 71 21 115t73 84q82 62 87 40q3 -16 -43 -74q-39 -48 -49 -88q-6 -25 -2 -31 t27 -6q31 0 58 -29t32 -62t-14 -58q-16 -16 -81 -16q-61 0 -85 27.5t-24 97.5z" />
<glyph unicode="&#x201e;" horiz-adv-x="561" d="M20.5 196q2.5 25 15.5 38q20 19 70.5 15.5t71.5 -26.5q24 -26 30.5 -96t-10.5 -111q-17 -39 -81 -91q-61 -48 -73 -34q-11 13 37 84q61 90 41 105q-6 5 -21 5q-29 0 -49 18.5t-27 43t-4.5 49.5zM336 175q0 17 21 45q21 30 73 31t78 -28q24 -26 30.5 -96t-10.5 -111 q-8 -18 -31 -44.5t-48 -45.5q-85 -65 -85 -40q0 18 48 89q57 85 43 102q-6 8 -28 8q-25 0 -58 33t-33 57z" />
<glyph unicode="&#x2022;" />
<glyph unicode="&#x202f;" horiz-adv-x="273" />
<glyph unicode="&#x205f;" horiz-adv-x="341" />
<glyph unicode="&#x20ac;" />
<glyph unicode="&#x25fc;" horiz-adv-x="1228" d="M0 0v1229h1229v-1229h-1229z" />
</font>
</defs>
</svg>
